Девушка из «Голого глаза» / The Girl from the Naked Eye (Дэвид Рен / David Ren) [2012 г., боевик, триллер, мелодрама,HDRip ]

Страницы :  1, 2, 3, 4, 5, 6  След.

Ответить на тему
 

маток ®

Стаж: 6 лет 7 месяцев

Сообщений: 63

Симпатии: 2

Девушка из «Голого глаза» / The Girl from the Naked Eye

--Год выпуска: 2012
Страна: США
Жанр: боевик, триллер, мелодрама
Продолжительность: 01:23:41
Перевод: Одноголосый закадровый den904--Режиссер: Дэвид Рен / David Ren-В ролях: Джейсон Йи, Саманта Стритс, Гари Стретч, Доминик Суэйн, Рон Йуан, Уилсон Жермен Эредия, Джерри Йинг, Джеймс Лью, Пит Антико и Саша Грей--Описание: Девушка Сенди работает по вызову, обслуживая клуб "Голый глаз", у неё есть водитель Джейк, который отвечает за неё головой. Когда Джейк находит её мёртвой в своей квартире, то решает начать своё собственное расследование смерти Сенди и начинает охоту на её убийц.--Качество: HDRip [Рип с BDRip 1080p]
Формат: AVI
Видео кодек: XviD
Аудио кодек: AC3
Видео: XviD, 1877 kb/s, 720x304, 23.976 fps
Аудио: AC3, 448 kb/s, 6 каналов, 48.0 KHz--

MediaInfo

General
Complete name : c:\Devushka.iz.Gologo.glaza.2012.L1.HDRip.1400Mb.avi
Format : AVI
Format/Info : Audio Video Interleave
File size : 1.36 GiB
Duration : 1h 23mn
Overall bit rate : 2 335 Kbps
Writing application : VirtualDubMod 1.5.10.2 (build 2540/release)
Writing library : VirtualDubMod build 2540/release
Video
ID : 0
Format : MPEG-4 Visual
Format profile : Advanced [email protected]
Format settings, BVOP : 2
Format settings, QPel : No
Format settings, GMC : No warppoints
Format settings, Matrix : Custom
Muxing mode : Packed bitstream
Codec ID : XVID
Codec ID/Hint : XviD
Duration : 1h 23mn
Bit rate : 1 878 Kbps
Width : 720 pixels
Height : 304 pixels
Display aspect ratio : 2.35:1
Frame rate : 23.976 fps
Color space : YUV
Chroma subsampling : 4:2:0
Bit depth : 8 bits
Scan type : Progressive
Compression mode : Lossy
Bits/(Pixel*Frame) : 0.358
Stream size : 1.10 GiB (80%)
Writing library : XviD 1.2.1 (UTC 2008-12-04)
Audio
ID : 1
Format : AC-3
Format/Info : Audio Coding 3
Mode extension : CM (complete main)
Codec ID : 2000
Duration : 1h 23mn
Bit rate mode : Constant
Bit rate : 448 Kbps
Channel(s) : 6 channels
Channel positions : Front: L C R, Side: L R, LFE
Sampling rate : 48.0 KHz
Bit depth : 16 bits
Compression mode : Lossy
Stream size : 268 MiB (19%)
Alignment : Split accross interleaves
Interleave, duration : 42 ms (1.00 video frame)
Interleave, preload duration : 500 ms

Скриншоты





Последний раз редактировалось: маток (2012-02-04 00:08), всего редактировалось 1 раз

Создавать темы 29-Янв-2012 22:25

[Профиль]  [ЛС] 

lehaxxx

Стаж: 5 лет 7 месяцев

Сообщений: 32

Мда... скорости вообще нет((

Создавать темы 30-Янв-2012 11:34

[Профиль]  [ЛС] 

MeGaTrON

Стаж: 6 лет 5 месяцев

Сообщений: 5

спасибо

Создавать темы 30-Янв-2012 12:05

[Профиль]  [ЛС] 

lil_tim

Стаж: 6 лет 9 месяцев

Сообщений: 11

фильм как ваще? отпешитись плиз!

Создавать темы 30-Янв-2012 13:48

[Профиль]  [ЛС] 

Lexa

Стаж: 5 лет 8 месяцев

Сообщений: 48

Симпатии: 3

когда раздача

Создавать темы 30-Янв-2012 18:14

[Профиль]  [ЛС] 

Espucho

Стаж: 5 лет 8 месяцев

Сообщений: 37

ееее ЗБ

Создавать темы 30-Янв-2012 18:31

[Профиль]  [ЛС] 

InD1gO

Стаж: 6 лет 8 месяцев

Сообщений: 81

Симпатии: 3

Перевод: Одноголосый закадровый den904 - и кому он понравится...\

Создавать темы 30-Янв-2012 18:45

[Профиль]  [ЛС] 

Follow Flow

Стаж: 5 лет 8 месяцев

Сообщений: 2

Почему не качается фильм?!

Создавать темы 31-Янв-2012 17:34

[Профиль]  [ЛС] 

otaxon

Стаж: 6 лет 4 месяца

Сообщений: 20

и как фильм кто опишет?

Создавать темы 31-Янв-2012 20:43

[Профиль]  [ЛС] 

Dem

Стаж: 5 лет 7 месяцев

Сообщений: 6

Фильм вроде кртуой,но эротический :D

Создавать темы 31-Янв-2012 20:50

[Профиль]  [ЛС] 

Djan

Стаж: 7 лет 2 месяца

Сообщений: 72

Фильм вроде кртуой,но эротический :D
Как раз это и нужно ap

Создавать темы 31-Янв-2012 21:32

[Профиль]  [ЛС] 

Jersey

Стаж: 6 лет 5 месяцев

Сообщений: 14

А Саша Грей что там забыла? :D

Создавать темы 31-Янв-2012 23:13

[Профиль]  [ЛС] 

Follow Flow

Стаж: 5 лет 8 месяцев

Сообщений: 2

Ответьте пожалуйста почему фильм не качается?!

Создавать темы 01-Фев-2012 18:18

[Профиль]  [ЛС] 

mal_ejik

Стаж: 6 лет 2 месяца

Сообщений: 14

Ответьте пожалуйста почему фильм не качается?!
рейтинг поднимайте, надо не только качать, но и раздавать

Создавать темы 02-Фев-2012 00:46

[Профиль]  [ЛС] 

azik90.92

Стаж: 5 лет 8 месяцев

Сообщений: 2

:)

Создавать темы 02-Фев-2012 09:08

[Профиль]  [ЛС] 
Показать сообщения:    
Ответить на тему

Текущее время: 21-Сен 17:29

Часовой пояс: UTC + 5



Вы не можете начинать темы
Вы не можете отвечать на сообщения
Вы не можете редактировать свои сообщения
Вы не можете удалять свои сообщения
Вы не можете голосовать в опросах
Вы не можете прикреплять файлы к сообщениям
Вы не можете скачивать файлы