Опасный метод / A Dangerous Method (Дэвид Кроненберг / David Cronenberg) [2011 г., триллер, драма, биография, HDRip]

Ответить на тему
 

маток ®

Стаж: 6 лет 7 месяцев

Сообщений: 63

Симпатии: 2

Опасный метод / A Dangerous Method«Фрейд против Юнга»
--Год выпуска: 2011
Страна: Германия, Канада, Великобритания, Швейцария
Жанр: триллер, драма, биография
Продолжительность: 01:39:14
Перевод: Профессиональный (дублированный) [Звук с TS]
--Режиссер: Дэвид Кроненберг / David Cronenberg--В ролях: Кира Найтли, Вигго Мортенсен, Майкл Фассбендер, Венсан Кассель, Сара Гэйдон, Андре Хеннике, Арндт Шверинг-Сонри, Миньон Реме, Мареике Карьер, Франциска Арндт--Описание: Сюжет закручен вокруг персон основателей психоанализа Карла Густава Юнга и Зигмунда Фрейда и их сложных взаимоотношений с умной и красивой пациенткой Сабиной Шпильрейн.--Доп. информация: - Фильм является экранизацией пьесы Кристофера Хэмптона «The Talking Cure» («Лечение разговором»).
- Изначально на роль Зигмунда Фрейда был выбран Кристоф Вальц, но из-за съемок в фильме «Воды слонам!» (2011) ему пришлось отказаться.
--Качество: HDRip / Исходник неизвестен/
Формат: AVI
Видео кодек: XviD
Аудио кодек: AC3
Видео: 640x352 (1.82:1), 24 fps, XviD build 50, 845 kbps avg, 0.16 bit/pixe
Аудио: 48 kHz, MPEG Layer 3, 2 ch, 128.00 kbps avg--

MediaInfo

General
Complete name : c:\Opasnyi.Metod.2011.HDRip.700MB.avi
Format : AVI
Format/Info : Audio Video Interleave
File size : 698 MiB
Duration : 1h 39mn
Overall bit rate : 983 Kbps
Writing application : VirtualDubMod 1.5.10.2 (build 2540/release)
Writing library : VirtualDub build 32842/release
Video
ID : 0
Format : MPEG-4 Visual
Format profile : Advanced [email protected]
Format settings, BVOP : 1
Format settings, QPel : No
Format settings, GMC : No warppoints
Format settings, Matrix : Custom
Codec ID : DIVX
Codec ID/Info : Project Mayo
Codec ID/Hint : DivX 4
Duration : 1h 39mn
Bit rate : 846 Kbps
Width : 640 pixels
Height : 352 pixels
Display aspect ratio : 16:9
Frame rate : 24.000 fps
Color space : YUV
Chroma subsampling : 4:2:0
Bit depth : 8 bits
Scan type : Progressive
Compression mode : Lossy
Bits/(Pixel*Frame) : 0.156
Stream size : 600 MiB (86%)
Writing library : XviD 1.2.1 (UTC 2008-12-04)
Audio
ID : 1
Format : MPEG Audio
Format version : Version 1
Format profile : Layer 3
Mode : Joint stereo
Mode extension : MS Stereo
Codec ID : 55
Codec ID/Hint : MP3
Duration : 1h 39mn
Bit rate mode : Constant
Bit rate : 128 Kbps
Channel(s) : 2 channels
Sampling rate : 48.0 KHz
Compression mode : Lossy
Stream size : 90.9 MiB (13%)
Alignment : Split accross interleaves
Interleave, duration : 42 ms (1.00 video frame)
Interleave, preload duration : 500 ms

Скриншоты



Создавать темы 02-Фев-2012 02:07

[Профиль]  [ЛС] 

InD1gO

Стаж: 6 лет 8 месяцев

Сообщений: 81

Симпатии: 3

Что значит - HDRip / Исходник неизвестен/

Создавать темы 02-Фев-2012 10:24

[Профиль]  [ЛС] 

маток ®

Стаж: 6 лет 7 месяцев

Сообщений: 63

Симпатии: 2

Почему временная?

Создавать темы 02-Фев-2012 11:46

[Профиль]  [ЛС] 

victor0778

Стаж: 6 лет 7 месяцев

Сообщений: 1670

Симпатии: 142

Почему временная?
когда выдет с другим звуком (любительский, профессиональный) эта раздача поглотится и станет не актуальной.

Создавать темы 02-Фев-2012 12:01

[Профиль]  [ЛС] 

маток ®

Стаж: 6 лет 7 месяцев

Сообщений: 63

Симпатии: 2

victor0778, Понятно)))

Создавать темы 02-Фев-2012 12:03

[Профиль]  [ЛС] 

Uzel

Стаж: 6 лет 5 месяцев

Сообщений: 923

Симпатии: 53

Спасибо за фильм!

Создавать темы 02-Фев-2012 12:26

[Профиль]  [ЛС] 

esus

Стаж: 6 лет 5 месяцев

Сообщений: 24

victor0778,
а зачем поглотить таких раздач?

Создавать темы 02-Фев-2012 18:46

[Профиль]  [ЛС] 

victor0778

Стаж: 6 лет 7 месяцев

Сообщений: 1670

Симпатии: 142

все CamRip\Telesync (включая звук) рано или поздно поглощаются раздачей более лучшего качества. Вы же не будете качать экранку (CamRip\Telesync ), если будет лицензия. Да и поглщеные релизы не удаляются кто захочет тот скачает.

Создавать темы 02-Фев-2012 19:32

[Профиль]  [ЛС] 
Показать сообщения:    
Ответить на тему

Текущее время: 21-Сен 19:07

Часовой пояс: UTC + 5



Вы не можете начинать темы
Вы не можете отвечать на сообщения
Вы не можете редактировать свои сообщения
Вы не можете удалять свои сообщения
Вы не можете голосовать в опросах
Вы не можете прикреплять файлы к сообщениям
Вы не можете скачивать файлы