Материк / Terraferma (Эмануэле Криалезе) [2011 г., драма, HDRip]

Ответить на тему
 

Anvarbek93 ®

Стаж: 6 лет 1 месяц

Сообщений: 13

-Материк / Terraferma-
Год выпуска: 2011
Страна: Франция, Италия
Жанр: драма
Продолжительность: 01:33:21
Перевод:
Любительский (одноголосый)[viRys]-Режиссер: Эмануэле Криалезе-В ролях: Филиппо Пучилло, Донателла Финокьяро, Беппе Фиорелло, Миммо Кутиккьо, Тициана Лодато, Клаудио Сантамария, Титти-Описание: На небольшом островке Линоза близ Сицилии жизнь местных жителей меняется после прибытия нелегальных эмигрантов.
-
Качество: HDRip
Формат: AVI
Видео кодек: XviD
Аудио кодек: MP3
Видео: 640x272, ~908 kbps, 23.98fps
Аудио: MP3, 128kb/s, 2 ch, 48Hz-

Media info

General
Complete name : D:\Anvarbek\Downloads\kino\Materik.2011.HDRip.700MB.avi
Format : AVI
Format/Info : Audio Video Interleave
File size : 698 MiB
Duration : 1h 33mn
Overall bit rate : 1 046 Kbps
Writing application : VirtualDubMod 1.5.10.3 | www.virtualdub-fr.org || (build 2550/release)
Writing library : VirtualDubMod build 2550/release
Video
ID : 0
Format : MPEG-4 Visual
Format profile : Advanced [email protected]
Format settings, BVOP : 1
Format settings, QPel : No
Format settings, GMC : No warppoints
Format settings, Matrix : Default (H.263)
Codec ID : XVID
Codec ID/Hint : XviD
Duration : 1h 33mn
Bit rate : 909 Kbps
Width : 640 pixels
Height : 272 pixels
Display aspect ratio : 2.35:1
Frame rate : 23.976 fps
Color space : YUV
Chroma subsampling : 4:2:0
Bit depth : 8 bits
Scan type : Progressive
Compression mode : Lossy
Bits/(Pixel*Frame) : 0.218
Stream size : 607 MiB (87%)
Writing library : XviD 1.2.1 (UTC 2008-12-04)
Audio
ID : 1
Format : MPEG Audio
Format version : Version 1
Format profile : Layer 3
Mode : Joint stereo
Mode extension : MS Stereo
Codec ID : 55
Codec ID/Hint : MP3
Duration : 1h 33mn
Bit rate mode : Constant
Bit rate : 128 Kbps
Channel(s) : 2 channels
Sampling rate : 48.0 KHz
Compression mode : Lossy
Stream size : 85.5 MiB (12%)
Alignment : Aligned on interleaves
Interleave, duration : 42 ms (1.00 video frame)
Interleave, preload duration : 504 ms
Writing library : LAME3.98r
Encoding settings : -m j -V 4 -q 2 -lowpass 17 -b 128
-

Скриншоты



-

Создавать темы 02-Фев-2012 13:25

[Профиль]  [ЛС] 

ТиПок

Стаж: 5 лет 7 месяцев

Сообщений: 2

Понаехали тут :D

Создавать темы 05-Фев-2012 00:24

[Профиль]  [ЛС] 

ruslan81

Стаж: 6 лет 11 месяцев

Сообщений: 70

Симпатии: 2

скачан 42раз а коментарии только1 про чё фильм то смотреть можно скачавшие алё

Создавать темы 05-Фев-2012 21:37

[Профиль]  [ЛС] 

McFLY

Стаж: 5 лет 5 месяцев

Сообщений: 658

Симпатии: 22

скачан 42раз а коментарии только1 про чё фильм то смотреть можно скачавшие алё
Поддерживаю этого паренька !!! Господа активней)))

Создавать темы 26-Мар-2012 19:20

[Профиль]  [ЛС] 
Показать сообщения:    
Ответить на тему

Текущее время: 18-Авг 19:17

Часовой пояс: UTC + 5



Вы не можете начинать темы
Вы не можете отвечать на сообщения
Вы не можете редактировать свои сообщения
Вы не можете удалять свои сообщения
Вы не можете голосовать в опросах
Вы не можете прикреплять файлы к сообщениям
Вы не можете скачивать файлы