Неверлэнд / Neverland (Ник Уиллинг) [2011 г., фэнтези, приключения, DVDRip]

Ответить на тему
 

vitall ®

Стаж: 6 лет 3 месяца

Сообщений: 25

Неверлэнд / Neverland --Год выпуска: 2011
Страна: Великобритания
Жанр: фэнтези, приключения
Продолжительность: 02:43:31
Перевод: Профессиональный (многоголосый, закадровый)[лицензия]-Режиссер: Ник Уиллинг-В ролях: Рис Иванс, Анна Фрил, Чарльз Дэнс, КОрианка Килчер, Чарли Роу, Боб Хоскинс, Кира Найтли, Рауль Трухильо, Кэс Анвар-Описание: Питер сирота. Вместе со своими друзьями он зарабатывает на жизнь тем, что обворовывает прохожих на улице. Джимми Хук собирает таких детей и дает им указание: украсть волшебное сокровище, с помощью которого можно оказаться в другом мире Neverland. Это такое Королевство. Сюда попадают люди, вырванные из разных времен. В Neverland живут пираты XVIII века, племя индейцев Пиратами управляет Элизабет Бонни, а вот индейцы пытаются защитить от нее дерево духов. Между ними уже давно ведется странная борьба. В это Королевство попадают и главные герои Хук, Питер и его друзья.-

Mediainfo

General
Complete name : E:\скачанно ТОРРЕНТОМ\Neverlend.2011.P..avi
Format : AVI
Format/Info : Audio Video Interleave
Format profile : OpenDML
File size : 2.05 GiB
Duration : 2h 43mn
Overall bit rate : 1 797 Kbps
Movie name : Neverlend.2011.P.DVDRip
Director : ELEKTRO-Am
Genre : Fantasy
Writing application : VirtualDubMod 1.5.10.2 (build 2540/release)
Original source form/Name : Movie
Copyright : ELEKTRI4KA
Video
ID : 0
Format : MPEG-4 Visual
Format profile : Advanced [email protected]
Format settings, BVOP : 2
Format settings, QPel : No
Format settings, GMC : No warppoints
Format settings, Matrix : Custom
Codec ID : XVID
Codec ID/Hint : XviD
Duration : 2h 43mn
Bit rate : 1 528 Kbps
Width : 720 pixels
Height : 400 pixels
Display aspect ratio : 16:9
Frame rate : 25.000 fps
Color space : YUV
Chroma subsampling : 4:2:0
Bit depth : 8 bits
Scan type : Progressive
Compression mode : Lossy
Bits/(Pixel*Frame) : 0.212
Stream size : 1.75 GiB (85%)
Writing library : XviD 1.2.0.dev47 (UTC 2006-11-01)
Audio
ID : 1
Format : AC-3
Format/Info : Audio Coding 3
Mode extension : CM (complete main)
Codec ID : 2000
Duration : 2h 43mn
Bit rate mode : Constant
Bit rate : 256 Kbps
Channel(s) : 6 channels
Channel positions : Front: L C R, Side: L R, LFE
Sampling rate : 48.0 KHz
Bit depth : 16 bits
Compression mode : Lossy
Stream size : 299 MiB (14%)
Alignment : Split accross interleaves
Interleave, duration : 40 ms (1.00 video frame)
Interleave, preload duration : 500 ms
-Качество: DVDRip
Формат: AVI
Видео кодек: XviD
Аудио кодек: AC3
Видео: 720x400 | 25.00fps | 1528 Kbps
Аудио: 48000Hz | 6ch | 256kbps--

Скриншоты





Последний раз редактировалось: vitall (2012-02-04 17:15), всего редактировалось 1 раз

Создавать темы 04-Фев-2012 11:53

[Профиль]  [ЛС] 

victor0778

Стаж: 6 лет 6 месяцев

Сообщений: 1670

Симпатии: 142

битрейт видео?

Создавать темы 04-Фев-2012 16:14

[Профиль]  [ЛС] 

vitall ®

Стаж: 6 лет 3 месяца

Сообщений: 25

битрейт видео?
как так ?? ai все готово уже cb

Создавать темы 04-Фев-2012 17:16

[Профиль]  [ЛС] 

emilsky

Стаж: 7 лет 1 месяц

Сообщений: 2237

Симпатии: 610

vitall, внимательнее битрейта там нет

Создавать темы 04-Фев-2012 17:32

[Профиль]  [ЛС] 

victor0778

Стаж: 6 лет 6 месяцев

Сообщений: 1670

Симпатии: 142

все готово уже
сам поправил

Создавать темы 04-Фев-2012 17:32

[Профиль]  [ЛС] 

kafmar

Стаж: 6 лет 6 месяцев

Сообщений: 28

в сериалах тоже есть, что это сериал или фильм?

Создавать темы 05-Фев-2012 08:13

[Профиль]  [ЛС] 

victor0778

Стаж: 6 лет 6 месяцев

Сообщений: 1670

Симпатии: 142

здесь 2 части из двух

Создавать темы 05-Фев-2012 08:22

[Профиль]  [ЛС] 

nord

Стаж: 7 лет 2 месяца

Сообщений: 65

Симпатии: 1

интересно, эту замечательную историю будут снимать еще?

Создавать темы 07-Фев-2012 17:45

[Профиль]  [ЛС] 

bahtik_logan

Стаж: 7 лет

Сообщений: 8

А есть продолжение?

Создавать темы 09-Фев-2012 01:32

[Профиль]  [ЛС] 

izenshpis

Стаж: 6 лет

Сообщений: 35

))гы оно вам понравилось ))??

Создавать темы 13-Фев-2012 21:52

[Профиль]  [ЛС] 

izenshpis

Стаж: 6 лет

Сообщений: 35

А есть продолжение?
нее нету продолжение

Создавать темы 13-Фев-2012 21:54

[Профиль]  [ЛС] 
Показать сообщения:    
Ответить на тему

Текущее время: 19-Авг 03:05

Часовой пояс: UTC + 5



Вы не можете начинать темы
Вы не можете отвечать на сообщения
Вы не можете редактировать свои сообщения
Вы не можете удалять свои сообщения
Вы не можете голосовать в опросах
Вы не можете прикреплять файлы к сообщениям
Вы не можете скачивать файлы