Выбор киллера / Choose (Маркус Грейвз) [2011 г., ужасы, триллер, драма, криминал, HDRip]

Ответить на тему
 

Anvarbek93 ®

Стаж: 6 лет 3 месяца

Сообщений: 13

-Выбор киллера / Choose- Год выпуска: 2011
Страна: США
Жанр: ужасы, триллер, драма, криминал
Продолжительность: 01:26:22
Перевод: Профессиональный (многоголосый, закадровый)-Режиссер: Маркус Грейвз-В ролях: Кэтрин Уинник, Николас Туччи, Кевин Поллак, Ричард Шорт, Брюс Дерн, Генри Бэйкер, Талия Балсам, Мэрлин Берри, Игорь Черкасский, Том Клири и др.-Описание: Серийный убийца проявляет «милосердие» и дает право выбора: его жертва за одну минуту может сама выбрать, кто из ее близких сейчас умрет, а кто останется жить
-
Качество: HDRip
Формат: AVI
Видео кодек: XviD
Аудио кодек: MP3
Видео: XviD, 996 kb/s, 640x272, 23.976 fps
Аудио: MP3, 128 kb/s, 2 канала, 48.0 KHz-

<---

General
Complete name : Vyb0r.killera.2011.P.HDRip.700Mb.avi
Format : AVI
Format/Info : Audio Video Interleave
File size : 701 MiB
Duration : 1h 26mn
Overall bit rate : 1 134 Kbps
Writing application : VirtualDubMod 1.5.10.3 | www.virtualdub-fr.org || (build 2550/release)
Writing library : VirtualDubMod build 2550/release
Video
ID : 0
Format : MPEG-4 Visual
Format profile : Advanced [email protected]
Format settings, BVOP : 2
Format settings, QPel : No
Format settings, GMC : No warppoints
Format settings, Matrix : Default (MPEG)
Muxing mode : Packed bitstream
Codec ID : XVID
Codec ID/Hint : XviD
Duration : 1h 26mn
Bit rate : 997 Kbps
Width : 640 pixels
Height : 272 pixels
Display aspect ratio : 2.35:1
Frame rate : 23.976 fps
Color space : YUV
Chroma subsampling : 4:2:0
Bit depth : 8 bits
Scan type : Progressive
Compression mode : Lossy
Bits/(Pixel*Frame) : 0.239
Stream size : 616 MiB (88%)
Writing library : XviD 64
Audio
ID : 1
Format : MPEG Audio
Format version : Version 1
Format profile : Layer 3
Codec ID : 55
Codec ID/Hint : MP3
Duration : 1h 26mn
Bit rate mode : Constant
Bit rate : 128 Kbps
Channel(s) : 2 channels
Sampling rate : 48.0 KHz
Compression mode : Lossy
Stream size : 79.1 MiB (11%)
Alignment : Aligned on interleaves
Interleave, duration : 42 ms (1.00 video frame)
Interleave, preload duration : 504 ms
-Media info

<---

-Скриншоты


Последний раз редактировалось: Anvarbek93 (2012-02-06 15:38), всего редактировалось 3 раз(а)

Создавать темы 06-Фев-2012 01:37

[Профиль]  [ЛС] 

victor0778

Стаж: 6 лет 8 месяцев

Сообщений: 1670

Симпатии: 142

Постер в зону тас-икс залей, качество на HDRip исправь

Создавать темы 06-Фев-2012 01:59

[Профиль]  [ЛС] 
Показать сообщения:    
Ответить на тему

Текущее время: 19-Окт 10:41

Часовой пояс: UTC + 5



Вы не можете начинать темы
Вы не можете отвечать на сообщения
Вы не можете редактировать свои сообщения
Вы не можете удалять свои сообщения
Вы не можете голосовать в опросах
Вы не можете прикреплять файлы к сообщениям
Вы не можете скачивать файлы