Выбор киллера / Choose (Маркус Грейвз / Marcus Graves) [2011 г., ужасы, триллер, драма, криминал, DVDRip]

Ответить на тему
 

маток ®

Стаж: 6 лет 9 месяцев

Сообщений: 63

Симпатии: 2

Выбор киллера / Choose-- Год выпуска: 2011
Страна: США
Жанр: ужасы, триллер, драма, криминал
Продолжительность: 01:26:22
Перевод: Профессиональный (многоголосный) [ Лицензия ]--Режиссер: Маркус Грейвз / Marcus Graves--В ролях: Кэтрин Уинник, Кевин Поллак, Николас Туччи, Брюс Дерн, Ричард Шорт, Алекси Вассер, Ленни фон Долен, Кэди Хаффмен, Билли Кэй, Билли Магнуссен--Описание: Детектив Том Вагнер расследует ряд шокирующих по своей жестокости преступлений. Маньяк-убийца одержим только ему понятной кровавой философией - он предоставляет своей жертве право выбора - кого или что она намерена потерять навсегда. Дочь Вагнера, Фиона, изучив предсмертную записку своей матери, где так же упоминалось о выборе, решает вычислить садиста. Но неожиданно убийца сам выходит на связь с девушкой, и теперь на ее электронную почту приходят страшные фотографии его злодеяний с комментариями...--Качество: DVDRip
Формат: AVI
Видео кодек: XviD
Аудио кодек: AC3
Видео: Xvid | 720x304 | 23.98fps
Аудио: AC3 | 48000Hz | 6ch | 448kbps--

MediaInfo

General
Complete name : C:\Выбор киллера 2011 DVDRip.avi
Format : AVI
Format/Info : Audio Video Interleave
File size : 1.36 GiB
Duration : 1h 26mn
Overall bit rate : 2 260 Kbps
Movie name : Vybor.killera.2011.P.DVDRip
Director : ELEKTRO-Am
Genre : Thriller
Writing application : VirtualDubMod 1.5.4.1 (build 2178/release)
Original source form/Name : Movie
Copyright : ELEKTRI4KA
Video
ID : 0
Format : MPEG-4 Visual
Format profile : Advanced [email protected]
Format settings, BVOP : 2
Format settings, QPel : No
Format settings, GMC : No warppoints
Format settings, Matrix : Custom
Codec ID : XVID
Codec ID/Hint : XviD
Duration : 1h 26mn
Bit rate : 1 803 Kbps
Width : 720 pixels
Height : 304 pixels
Display aspect ratio : 2.35:1
Frame rate : 23.976 fps
Color space : YUV
Chroma subsampling : 4:2:0
Bit depth : 8 bits
Scan type : Progressive
Compression mode : Lossy
Bits/(Pixel*Frame) : 0.343
Stream size : 1.09 GiB (80%)
Writing library : XviD 1.2.0.dev47 (UTC 2006-11-01)
Audio
ID : 1
Format : AC-3
Format/Info : Audio Coding 3
Mode extension : CM (complete main)
Codec ID : 2000
Duration : 1h 26mn
Bit rate mode : Constant
Bit rate : 448 Kbps
Channel(s) : 6 channels
Channel positions : Front: L C R, Side: L R, LFE
Sampling rate : 48.0 KHz
Bit depth : 16 bits
Compression mode : Lossy
Delay relative to video : 10ms
Stream size : 277 MiB (20%)
Alignment : Split accross interleaves
Interleave, duration : 42 ms (1.00 video frame)
Interleave, preload duration : 500 ms

Скриншоты



Создавать темы 06-Фев-2012 22:06

[Профиль]  [ЛС] 

cinemaddict

Стаж: 5 лет 9 месяцев

Сообщений: 3

ауу филмь какой?

Создавать темы 07-Фев-2012 17:33

[Профиль]  [ЛС] 

victor0778

Стаж: 6 лет 9 месяцев

Сообщений: 1670

Симпатии: 142

 

Создавать темы 07-Фев-2012 18:07

[Профиль]  [ЛС] 

Scar

Стаж: 5 лет 8 месяцев

Сообщений: 17

film fuflo!

Создавать темы 06-Мар-2012 08:37

[Профиль]  [ЛС] 
Показать сообщения:    
Ответить на тему

Текущее время: 21-Ноя 09:33

Часовой пояс: UTC + 5



Вы не можете начинать темы
Вы не можете отвечать на сообщения
Вы не можете редактировать свои сообщения
Вы не можете удалять свои сообщения
Вы не можете голосовать в опросах
Вы не можете прикреплять файлы к сообщениям
Вы не можете скачивать файлы