Враг Веум 8 - Черная овца / Varg Veum Svarte far (Stephan Apelgren) [2011 г., криминал, DVDRip]

Ответить на тему
 

max0550 ®

Стаж: 5 лет 11 месяцев

Сообщений: 28

Симпатии: 8

Варг Веум 8 - Чёрная овца / Varg Veum 8 - Svarte far
Год выпуска: 2011
Страна: Норвегия
Жанр: криминал
Продолжительность: 90 мин.
Перевод: Профессиональный (многоголосый, закадровый)
Режиссер: Стефан Апельгрен
В ролях: Тронд Эспен Сейм, Бьорн Флоберг, Ленэ Нистрём, Александр Карим
Описание: Веум пытается помочь Карин найти ее сестру, пропавшую уже несколько лет назад. В поисках у Веума попадаются разные таинственные убийств, которые как кажется не имеют отношения к пропажи сестры. Но, с временем выясняется, что все намного сложнее, чем они могли себе подумать...
Качество: DVDRip
Формат: FLV
Видео кодек: Sorenson Spark
Аудио кодек: MPEG Audio (MP3)
Видео: 781 Kbps, 640*480, at 24.000fps, Sorenson Spark
Аудио: 128 kbps, 44.1 KHz, MPEG Audio (MP3) (Version 1) (Layer 3) (Joint stereo)

Скриншоты





Последний раз редактировалось: max0550 (2012-02-11 10:07), всего редактировалось 12 раз(а)

Создавать темы 07-Фев-2012 18:33

[Профиль]  [ЛС] 

victor0778

Стаж: 6 лет 9 месяцев

Сообщений: 1670

Симпатии: 142

где тех. даные? И актёров с режиссером на кириллице напиши

Создавать темы 07-Фев-2012 20:42

[Профиль]  [ЛС] 

max0550 ®

Стаж: 5 лет 11 месяцев

Сообщений: 28

Симпатии: 8

где тех. даные? И актёров с режиссером на кириллице напиши
Всё я сделал!!!

Создавать темы 08-Фев-2012 13:36

[Профиль]  [ЛС] 

Топик был перенесен из форума Видео для мобильных устройств в форум Фильмы за 2011


max0550

Создавать темы 08-Фев-2012 13:38

 

nigga22480

Стаж: 7 лет 6 месяцев

Сообщений: 211

Симпатии: 13

по описанием похожа на сериалу

Создавать темы 09-Фев-2012 04:38

[Профиль]  [ЛС] 

max0550 ®

Стаж: 5 лет 11 месяцев

Сообщений: 28

Симпатии: 8

victor0778,
Format : Flash Video
File size : 411 MiB
Duration : 1h 29mn
Overall bit rate mode : Variable
Overall bit rate : 641 Kbps
Video
Format : Sorenson Spark
Codec ID : 2
Duration : 1h 29mn
Bit rate : 781 Kbps
Width : 640 pixels
Height : 480 pixels
Display aspect ratio : 4:3
Frame rate mode : Constant
Frame rate : 24.000 fps
Bit depth : 8 bits
Bits/(Pixel*Frame) : 0.106
Stream size : 500 MiB
Audio
Format : MPEG Audio
Format version : Version 1
Format profile : Layer 3
Mode : Joint stereo
Codec ID : 2
Codec ID/Hint : MP3
Duration : 1h 29mn
Bit rate mode : Variable
Bit rate : 128 Kbps
Channel(s) : 2 channels
Sampling rate : 44.1 KHz
Compression mode : Lossy
Stream size : 81.9 MiB (20%)
Writing library : LAME3.98ЄЄЄЄЄЄЄЄЄЄЄЄ

Создавать темы 10-Фев-2012 09:14

[Профиль]  [ЛС] 

Ярыч

Стаж: 7 лет

Сообщений: 35

Симпатии: 1

max0550, скриншоты родные поставь пожалуйста

Создавать темы 10-Фев-2012 09:31

[Профиль]  [ЛС] 

victor0778

Стаж: 6 лет 9 месяцев

Сообщений: 1670

Симпатии: 142

max0550, качество не может быть Flash Video- это формат. и скриншоты по размерам залей

Создавать темы 10-Фев-2012 10:36

[Профиль]  [ЛС] 

Uzel

Стаж: 6 лет 7 месяцев

Сообщений: 923

Симпатии: 53

А где раздача ?

Создавать темы 06-Май-2012 00:31

[Профиль]  [ЛС] 

McFLY

Стаж: 5 лет 9 месяцев

Сообщений: 658

Симпатии: 22

Интересно , если это снимается по типу сериала, то хотелось бы увидеть первые фильмы !!
А с 8-го смысла не вижу, хотя может я и не прав

Создавать темы 06-Май-2012 01:00

[Профиль]  [ЛС] 
Показать сообщения:    
Ответить на тему

Текущее время: 24-Ноя 14:08

Часовой пояс: UTC + 5



Вы не можете начинать темы
Вы не можете отвечать на сообщения
Вы не можете редактировать свои сообщения
Вы не можете удалять свои сообщения
Вы не можете голосовать в опросах
Вы не можете прикреплять файлы к сообщениям
Вы не можете скачивать файлы