Инопланетное вторжение: Битва за Лос-Анджелес / World Invasion: Battle Los Angeles (Джонатан Либесман / Jonathan Liebesman) [2011 г., фантастика, боевик, триллер, HDTVRip]

Ответить на тему
 

richfox ®

Стаж: 5 лет 11 месяцев

Сообщений: 31

Симпатии: 1

Инопланетное вторжение: Битва за Лос-Анджелес / World Invasion: Battle Los Angeles
Год выпуска: 2011
Страна: США
Жанр: фантастика, боевик, триллер
Продолжительность: 01:56:10
Перевод: Профессиональный (полное дублирование)
Режиссер: Джонатан Либесман / Jonathan Liebesman
В ролях: Аарон Экхарт, Бриджет Мойнэхэн, Мишель Родригес, Майкл Пенья, Рамон Родригез, Кори Хардрикт, Джино Энтони Песи, Шаффер Смит, Джеймс Хироюки Лиао, Ноэль Фишер
Описание: Землю пытается захватить инопланетная цивилизация, истребляя все живое на своем пути. По всему миру начинается широкомасштабное сражение человечества за выживание. Отряду морских пехотинцев поручено во что бы то ни стало освободить осажденный город ангелов от таинственных и смертоносных тварей…
Качество: HDRip
Формат: AVI
Видео кодек: XviD
Аудио кодек: AC3
Видео: 720x304 (2.37:1), 23.976 fps, XviD build 50 ~2228 kbps avg, 0.42 bit/pixel
Аудио: 48 kHz, AC3 Dolby Digital, 3/2 (L,C,R,l,r) + LFE ch, ~448.00 kbps avg

Информация MediaInfo

General
Complete name : Inoplanetnoe_vtorj_Bitva_za_LA_HDRip_[mytorrents.uz].avi
Format : AVI
Format/Info : Audio Video Interleave
Format profile : OpenDML
File size : 2.18 GiB
Duration : 1h 56mn
Overall bit rate : 2 683 Kbps
Writing application : VirtualDubMod 1.5.10.2 (build 2540/release)
Writing library : VirtualDub build 32842/release
Video #0
ID : 0
Format : MPEG-4 Visual
Format profile : Advanced [email protected]
Format settings, BVOP : 1
Format settings, QPel : No
Format settings, GMC : No warppoints
Format settings, Matrix : Custom
Codec ID : XVID
Codec ID/Hint : XviD
Duration : 1h 56mn
Bit rate : 2 224 Kbps
Width : 720 pixels
Height : 304 pixels
Display aspect ratio : 2.35:1
Frame rate : 23.976 fps
Color space : YUV
Chroma subsampling : 4:2:0
Bit depth : 8 bits
Scan type : Progressive
Compression mode : Lossy
Bits/(Pixel*Frame) : 0.424
Stream size : 1.80 GiB (83%)
Writing library : XviD 1.2.1 (UTC 2008-12-04)
Audio #1
ID : 1
Format : AC-3
Format/Info : Audio Coding 3
Mode extension : CM (complete main)
Codec ID : 2000
Duration : 1h 56mn
Bit rate mode : Constant
Bit rate : 448 Kbps
Channel(s) : 6 channels
Channel positions : Front: L C R, Side: L R, LFE
Sampling rate : 48.0 KHz
Bit depth : 16 bits
Compression mode : Lossy
Delay relative to video : 1s 600ms
Stream size : 372 MiB (17%)
Alignment : Split accross interleaves
Interleave, duration : 42 ms (1.00 video frame)
Interleave, preload duration : 500 ms

Скриншоты

Создавать темы 10-Фев-2012 15:23

[Профиль]  [ЛС] 

Тимочка

Стаж: 5 лет 10 месяцев

Сообщений: 5

Дайти скорость люди пожалуйста

Создавать темы 13-Фев-2012 19:45

[Профиль]  [ЛС] 
Показать сообщения:    
Ответить на тему

Текущее время: 18-Дек 06:17

Часовой пояс: UTC + 5



Вы не можете начинать темы
Вы не можете отвечать на сообщения
Вы не можете редактировать свои сообщения
Вы не можете удалять свои сообщения
Вы не можете голосовать в опросах
Вы не можете прикреплять файлы к сообщениям
Вы не можете скачивать файлы