Раздолбай (Валерий Ибрагимов) [2011 г., Боевик, комедия, DVDRip]

Ответить на тему
 

alx777 ®

Стаж: 5 лет 8 месяцев

Сообщений: 87

Симпатии: 8

Раздолбай
Год выпуска: 2011
Жанр: Боевик, комедия
Продолжительность: 01:20:47
Режиссер: Валерий Ибрагимов
В ролях: Николай Кудряшов, Юлия Куваева, Олег Сидоров, Филипп Величко, Евгений Савчук, Валерий Ибрагимов, Петр Капица, Николай Калмыков, Евгений Маканов, Сергей Куваев
Описание: Она владелица собственного бизнеса, амбициозна, самодостаточна и не замужем. Ее компания участвует в тендере за лакомый кусок земли. Столкнувшись с конкурентами, она ищет себе надежную охрану. Он водитель и охранник, хороший парень, но ему нельзя доверить никаких поручений, потому что главный герой… раздолбай. В разгар перепетий когда угрожает опасность именно он приходит ей на помощь.
Качество: WEBRip
Формат: AVI
Видео кодек: XviD
Аудио кодек: AC3
Видео: XviD, 2180 Кбит/с, 720x400,25.000 fps
Аудио: AC3, 2 ch, 224 Кбит/с

MediaInfo

Format : AVI
Format/Info : Audio Video Interleave
File size : 1.36 GiB
Duration : 1h 20mn
Overall bit rate : 2 414 Kbps
Writing application : VirtualDubMod 1.5.10.2 (build 2540/release)
Writing library : VirtualDubMod build 2540/release
Video
ID : 0
Format : MPEG-4 Visual
Format profile : Advanced [email protected]
Format settings, BVOP : 1
Format settings, QPel : No
Format settings, GMC : No warppoints
Format settings, Matrix : Default (H.263)
Codec ID : XVID
Codec ID/Hint : XviD
Duration : 1h 20mn
Bit rate : 2 180 Kbps
Width : 720 pixels
Height : 400 pixels
Display aspect ratio : 16:9
Frame rate : 25.000 fps
Color space : YUV
Chroma subsampling : 4:2:0
Bit depth : 8 bits
Scan type : Progressive
Compression mode : Lossy
Bits/(Pixel*Frame) : 0.303
Stream size : 1.23 GiB (90%)
Writing library : XviD 1.2.0.dev47 (UTC 2006-11-01)
Audio
ID : 1
Format : AC-3
Format/Info : Audio Coding 3
Mode extension : CM (complete main)
Codec ID : 2000
Duration : 1h 20mn
Bit rate mode : Constant
Bit rate : 224 Kbps
Channel(s) : 2 channels
Channel positions : Front: L R
Sampling rate : 48.0 KHz
Bit depth : 16 bits
Compression mode : Lossy
Stream size : 129 MiB (9%)
Alignment : Split accross interleaves
Interleave, duration : 40 ms (1.00 video frame)
Interleave, preload duration : 500 ms

Скриншоты



Создавать темы 10-Фев-2012 23:46

[Профиль]  [ЛС] 

nurjan

Стаж: 5 лет 8 месяцев

Сообщений: 6

доваите по быстрее раздачу

Создавать темы 21-Фев-2012 10:16

[Профиль]  [ЛС] 

nail&natalya

Стаж: 5 лет 7 месяцев

Сообщений: 6

благодарю) фильм отличный)

Создавать темы 09-Мар-2012 19:03

[Профиль]  [ЛС] 

Griffin

Стаж: 7 лет 1 месяц

Сообщений: 16

20 сидеров а скорость 13 кб/сек будто с диалапа

Создавать темы 15-Апр-2012 00:22

[Профиль]  [ЛС] 
Показать сообщения:    
Ответить на тему

Текущее время: 20-Окт 17:45

Часовой пояс: UTC + 5



Вы не можете начинать темы
Вы не можете отвечать на сообщения
Вы не можете редактировать свои сообщения
Вы не можете удалять свои сообщения
Вы не можете голосовать в опросах
Вы не можете прикреплять файлы к сообщениям
Вы не можете скачивать файлы