Мой папа - Барышников (Дмитрий Поволоцкий, Марк Другой) [2011 г., Комедия, DVDRip]

Ответить на тему
 

alx777 ®

Стаж: 5 лет 7 месяцев

Сообщений: 87

Симпатии: 8

Мой папа - Барышников
Год выпуска: 2011
Жанр: Комедия
Продолжительность: 01:27:27
Озвучивание: Оригинальное [лицензия]
Режиссер: Дмитрий Поволоцкий, Марк Другой
В ролях: Дмитрий Выскубенко, Анна Михалкова, Владимир Капустин, Марина Полицеймако, Илья Рутберг, Людмила Титова, Анатолий Кот, Сергей Сосновский, Ксения Суркова, Лилия Ямада
Описание: Москва, 1986 год. Начинается Перестройка. Обаятельный и неуклюжий мальчик Боря учится в хореографическом училище Большого Театра, любит музыку диско, мечтает танцевать с самой красивой девчонкой в классе и раскрывает удивительную тайну: его отец — великий танцор Михаил Барышников.Cовременный и жизнеутверждающий взгляд на не столь отдаленную эпоху, когда все мы жили в одинаковых квартирах с одинаковой мебелью и носили одинаковую одежду. А мечтали — быть разными
Качество: DVDRip
Формат: AVI
Видео кодек: XviD
Аудио кодек: AC3
Видео: XviD,~ 1 796 Kbps,720x400,25.000 fps
Аудио: ac3, 48000 Hz, 5.1, s16, 448 kb/s

MediaInfo

Complete name : G:\1\фильмы\Мой папа Барышников.2011.avi
Format : AVI
Format/Info : Audio Video Interleave
File size : 1.38 GiB
Duration : 1h 27mn
Overall bit rate : 2 255 Kbps
Movie name : Moj.papa.Barishnikov.2011.DVDRip.XviD.KinoZalSat
Director : Русалка.by.KinoZalSat
Writing application : Lavf52.33.0
Original source form/Name : Moj.papa.Barishnikov.2011.DVD-9
Video
ID : 0
Format : MPEG-4 Visual
Format profile : [email protected]
Format settings, BVOP : No
Format settings, QPel : No
Format settings, GMC : No warppoints
Format settings, Matrix : Default (H.263)
Codec ID : XVID
Codec ID/Hint : XviD
Duration : 1h 27mn
Bit rate : 1 796 Kbps
Width : 720 pixels
Height : 400 pixels
Display aspect ratio : 16:9
Frame rate : 25.000 fps
Color space : YUV
Chroma subsampling : 4:2:0
Bit depth : 8 bits
Scan type : Progressive
Compression mode : Lossy
Bits/(Pixel*Frame) : 0.249
Stream size : 1.10 GiB (80%)
Writing library : XviD 1.2.1 (UTC 2008-12-04)
Audio
ID : 1
Format : AC-3
Format/Info : Audio Coding 3
Mode extension : CM (complete main)
Codec ID : 2000
Duration : 1h 27mn
Bit rate mode : Constant
Bit rate : 448 Kbps
Channel(s) : 6 channels
Channel positions : Front: L C R, Side: L R, LFE
Sampling rate : 48.0 KHz
Bit depth : 16 bits
Compression mode : Lossy
Stream size : 280 MiB (20%)
Alignment : Aligned on interleaves
Interleave, duration : 32 ms (0.80 video frame)

Скриншоты





Последний раз редактировалось: alx777 (2012-02-11 12:18), всего редактировалось 3 раз(а)

Создавать темы 11-Фев-2012 10:30

[Профиль]  [ЛС] 

victor0778

Стаж: 6 лет 7 месяцев

Сообщений: 1670

Симпатии: 142

alx777, здесь точно битрейт видео 2255 kb/s( мне в личку лог медиа инфо отправь)

Создавать темы 11-Фев-2012 11:38

[Профиль]  [ЛС] 

alx777 ®

Стаж: 5 лет 7 месяцев

Сообщений: 87

Симпатии: 8

Исправил на ~ 1 796 Kbps.И вставил MediaInfo сюда.
В MediaInfo указано Overall bit rate : 2 255 Kbps.Не тот параметр указал сперва

Создавать темы 11-Фев-2012 12:26

[Профиль]  [ЛС] 

alx777 ®

Стаж: 5 лет 7 месяцев

Сообщений: 87

Симпатии: 8

По названию думал очередная туфта.. Начал смотреть, и посмотрел его с удовольствием.Хороший, добрый фильм,временами грустный
Атмосфера перестройки настолько реалистична, что даже не верится, что фильм 2011
Смотреть рекомендую ВСЕМ

Создавать темы 11-Фев-2012 14:24

[Профиль]  [ЛС] 
Показать сообщения:    
Ответить на тему

Текущее время: 23-Сен 09:02

Часовой пояс: UTC + 5



Вы не можете начинать темы
Вы не можете отвечать на сообщения
Вы не можете редактировать свои сообщения
Вы не можете удалять свои сообщения
Вы не можете голосовать в опросах
Вы не можете прикреплять файлы к сообщениям
Вы не можете скачивать файлы