Crossroads Guitar Festival 2010 [2010 г., Blues, Rock, DVDRip]

Ответить на тему
 

artabaz ®

Стаж: 6 лет 4 месяца

Сообщений: 11

Crossroads Guitar Festival 2010
Год выпуска: 2010
Страна: США
Релиз: Rhino Entertainment, Warner Music
Жанр: Blues, Rock
Продолжительность: 4 ч 39 мин
Описание: Crossroads Guitar Festival — музыкальный фестиваль и благотворительный концерт, впервые проведённый в 2004 году. Фестиваль проводится в пользу основанного Эриком Клэптоном центра лечения наркомании Crossroads Centre. Как и в 2007 году, фестиваль вновь состоялся в Toyota Park в Бриджвью, штат Иллинойс 26 июня 2010 года и стал очередным праздником блюза. Список исполнителей фестиваля 2010 года: Albert Lee, B.B. King, Bert Jansch, Buddy Guy, David Hidalgo and Cesar Rosas of Los Lobos, Doyle Bramhall II, Earl Klugh, Eric Clapton, Gary Clark Jr., Hubert Sumlin, James Burton, Jeff Beck, Jimmie Vaughan, Joao Gilberto, Joe Bonamassa, John Mayer, John Renbourn, Johnny Winter, Jonny Lang, Keb' Mo', Pino Daniele, Robert Cray, Robert Randolph, Ronnie Wood, Sheryl Crow, Sonny Landreth, Stefan Grossman, Steve Winwood, Susan Tedeschi, Vince Gill, ZZ Top. Ведущий шоу - Bill Murray.
Качество: DVDRip
Формат: MKV
Видео кодек: Другой MPEG4
Аудио кодек: AC3
Видео: Bit rate : 1 020 Kbps, W: 720 pxs H: 404 pxs, Display aspect ratio : 16:9, Frame rate : 23.976 fps
Аудио: Bit rate : 448 Kbps, Channel(s) : 6 channels, Channel positions : Front: L C R, Side: L R, LFE, Sampling rate : 48.0 KHz, Bit depth : 16 bits

MediaInfo

Format : Matroska
Format version : Version 2
File size : 1.49 GiB
Duration : 2h 22mn
Overall bit rate : 1 498 Kbps
Writing library : libebml v0.7.8 + libmatroska v0.8.1
Video #1
ID : 1
Format : AVC
Format/Info : Advanced Video Codec
Format profile : [email protected]
Format settings, CABAC : Yes
Format settings, ReFrames : 2 frames
Codec ID : V_MPEG4/ISO/AVC
Duration : 2h 22mn
Bit rate : 1 020 Kbps
Width : 720 pixels
Height : 404 pixels
Display aspect ratio : 16:9
Frame rate : 23.976 fps
Color space : YUV
Chroma subsampling : 4:2:0
Bit depth : 8 bits
Scan type : Progressive
Bits/(Pixel*Frame) : 0.146
Stream size : 1.01 GiB (68%)
Writing library : x264 core
Default : Yes
Forced : No
Color primaries : BT.601-6 525, BT.1358 525, BT.1700 NTSC, SMPTE 170M
Transfer characteristics : BT.709-5, BT.1361
Matrix coefficients : BT.601-6 525, BT.1358 525, BT.1700 NTSC, SMPTE 170M
Audio #2
ID : 2
Format : AC-3
Format/Info : Audio Coding 3
Mode extension : CM (complete main)
Codec ID : A_AC3
Duration : 2h 22mn
Bit rate mode : Constant
Bit rate : 448 Kbps
Channel(s) : 6 channels
Channel positions : Front: L C R, Side: L R, LFE
Sampling rate : 48.0 KHz
Bit depth : 16 bits
Compression mode : Lossy
Stream size : 455 MiB (30%)
Default : Yes
Forced : No

Скриншоты






Добавил 2-ую часть фестиваля! Перекачайте торрент!

Создавать темы 12-Фев-2012 15:02

[Профиль]  [ЛС] 

exist

Стаж: 4 года 6 месяцев

Сообщений: 4

на раздачу!

Создавать темы 18-Май-2013 22:36

[Профиль]  [ЛС] 

tanuki

Стаж: 4 года 1 месяц

Сообщений: 60

Симпатии: 3

Огромное спасибо. Сейчас выкачиваю Crossroads за 2013. Как докачается - выложу. Здоровый зараза (19 Гб), зато FullHD + AC3 :)

Создавать темы 20-Ноя-2013 01:04

[Профиль]  [ЛС] 

tanuki

Стаж: 4 года 1 месяц

Сообщений: 60

Симпатии: 3

Все таки не выкачиваю. Странно, неделю висит в торренте и ни одного байта не скачано. Посмотрите пожайлуста, у Вас правда включено?

Создавать темы 27-Ноя-2013 10:59

[Профиль]  [ЛС] 
Показать сообщения:    
Ответить на тему

Текущее время: 23-Ноя 12:48

Часовой пояс: UTC + 5



Вы не можете начинать темы
Вы не можете отвечать на сообщения
Вы не можете редактировать свои сообщения
Вы не можете удалять свои сообщения
Вы не можете голосовать в опросах
Вы не можете прикреплять файлы к сообщениям
Вы не можете скачивать файлы