WWE Monday Night RAW 16.01.2012 (русская версия от Rated) [2012 г., Рестлинг, SATRip]

Страницы :  1, 2  След.

Ответить на тему
 

Спартанец ®

Стаж: 5 лет 6 месяцев

Сообщений: 361

WWE Monday Night RAW 16.01.2012(русская версия от Rated)
Год выпуска: 2012
Вид спорта: Рестлинг
Участники: WWE superstars
Продолжительность: 01:34:00
Комментарий: Любительский (одноголосый)
Язык комментариев: русский
Качество: SATRip
Формат: MP4
Видео кодек: XviD
Аудио кодек: mp3
Видео: XviD, 640x368 25.00fps 1022kbps
Аудио: MP3, 2ch, 227 kbps, 48 Khz

MediaInfo

Формат : MPEG-4
Профиль формата : Base Media
Идентификатор кодека : isom
Размер файла : 845 Мбайт
Продолжительность : 1 ч. 34 м.
Общий поток : 1250 Кбит/сек
Дата кодирования : UTC 2012-01-16 13:17:31
Дата пометки : UTC 2012-01-16 13:17:31
Видео
Идентификатор : 1
Формат : MPEG-4 Visual
Профиль формата : Advanced [email protected]
Параметр BVOP формата : Да
Параметр QPel формата : Нет
Параметр GMC формата : Без точки перехода
Параметр матрицы формата : Default (H.263)
Идентификатор кодека : 20
Продолжительность : 1 ч. 34 м.
Вид битрейта : Переменный
Битрейт : 1022 Кбит/сек
Максимальный битрейт : 3621 Кбит/сек
Ширина : 640 пикс.
Высота : 368 пикс.
Соотношение сторон : 16:9
Режим частоты кадров : Постоянный
Частота кадров : 25,000 кадр/сек
Цветовое пространство : YUV
Подвыборка цветности : 4:2:0
Битовая глубина : 8 бит
Тип развёртки : Прогрессивная
Метод сжатия : С потерями
Бит/(Пиксели*Кадры) : 0.174
Размер потока : 689 Мбайт (82%)
Библиотека кодирования : XviD 1.1.2 (UTC 2006-11-01)
Дата кодирования : UTC 2012-01-16 13:17:31
Дата пометки : UTC 2012-01-16 13:21:03
Аудио
Идентификатор : 2
Формат : MPEG Audio
Версия формата : Version 1
Профиль формата : Layer 3
Идентификатор кодека : 6B
Продолжительность : 1 ч. 34 м.
Вид битрейта : Переменный
Битрейт : 227 Кбит/сек
Максимальный битрейт : 260 Кбит/сек
Канал(ы) : 2 канала(ов)
Частота : 48,0 КГц
Метод сжатия : С потерями
Размер потока : 153 Мбайт (18%)
Дата кодирования : UTC 2012-01-16 13:20:49
Дата пометки : UTC 2012-01-16 13:21:03

Скриншоты




Последний раз редактировалось: Спартанец (2012-02-21 20:24), всего редактировалось 3 раз(а)

Создавать темы 12-Фев-2012 23:04

[Профиль]  [ЛС] 

Pendalf

Стаж: 6 лет 2 месяца

Сообщений: 416

Симпатии: 34

Спартанец, необходим, еще как минимум, один скриншот! С тех.данными разберитесь! Видео кодек, наверняка, не тот, что вы указали, также, добавьте количество каналов аудиодорожки.

Создавать темы 13-Фев-2012 01:54

[Профиль]  [ЛС] 

TimaAnarki

Стаж: 5 лет 7 месяцев

Сообщений: 45

Симпатии: 1

По 2х2 же крутят...

Создавать темы 13-Фев-2012 14:58

[Профиль]  [ЛС] 

Алекс

Стаж: 6 лет 11 месяцев

Сообщений: 14

Симпатии: 1

давай скорость на полную

Создавать темы 13-Фев-2012 20:26

[Профиль]  [ЛС] 

Kroys

Стаж: 5 лет 10 месяцев

Сообщений: 187

Симпатии: 1

[img]да поскорей сделай) посмореть охото уже[/img] )

Создавать темы 13-Фев-2012 22:02

[Профиль]  [ЛС] 

buldozer

Стаж: 5 лет 6 месяцев

Сообщений: 79

Симпатии: 6

давай газу

Создавать темы 16-Фев-2012 07:57

[Профиль]  [ЛС] 

Kroys

Стаж: 5 лет 10 месяцев

Сообщений: 187

Симпатии: 1

он забыл про это походу.... не сделает уже

Создавать темы 17-Фев-2012 23:50

[Профиль]  [ЛС] 

Спартанец ®

Стаж: 5 лет 6 месяцев

Сообщений: 361

не-не, дома буду - доделаю :) Никто не забыт - ничто не забыто ))

Создавать темы 20-Фев-2012 20:34

[Профиль]  [ЛС] 

Спартанец ®

Стаж: 5 лет 6 месяцев

Сообщений: 361

ну как-то так. Не знаю, что получилось :)

Создавать темы 20-Фев-2012 21:29

[Профиль]  [ЛС] 

Kroys

Стаж: 5 лет 10 месяцев

Сообщений: 187

Симпатии: 1

не чё не получилось :(

Создавать темы 20-Фев-2012 23:52

[Профиль]  [ЛС] 

Pendalf

Стаж: 6 лет 2 месяца

Сообщений: 416

Симпатии: 34

Спартанец, ничего не изменилось. еще один скриншот не добавили! Видео кодек не исправили, битрейт видео не указали... Исправляем!

Создавать темы 21-Фев-2012 00:01

[Профиль]  [ЛС] 

Спартанец ®

Стаж: 5 лет 6 месяцев

Сообщений: 361

я через SMPlayer инфу взял. Там видео бит рейт 0кб\сек стоит (

Создавать темы 21-Фев-2012 01:01

[Профиль]  [ЛС] 

Pendalf

Стаж: 6 лет 2 месяца

Сообщений: 416

Симпатии: 34

Спартанец, http://tas-ix.net/viewtopic.php?t=41311

Создавать темы 21-Фев-2012 01:26

[Профиль]  [ЛС] 

Спартанец ®

Стаж: 5 лет 6 месяцев

Сообщений: 361

Еще раз

Создавать темы 21-Фев-2012 20:26

[Профиль]  [ЛС] 

Kroys

Стаж: 5 лет 10 месяцев

Сообщений: 187

Симпатии: 1

ну когда будет готово ???

Создавать темы 24-Фев-2012 11:25

[Профиль]  [ЛС] 
Показать сообщения:    
Ответить на тему

Текущее время: 21-Авг 06:03

Часовой пояс: UTC + 5



Вы не можете начинать темы
Вы не можете отвечать на сообщения
Вы не можете редактировать свои сообщения
Вы не можете удалять свои сообщения
Вы не можете голосовать в опросах
Вы не можете прикреплять файлы к сообщениям
Вы не можете скачивать файлы