Маска / The mask (Чак Рассел) [1994 г., Комедия, BDRip]

Ответить на тему
 

Kubaev_Muhiddin ®

Стаж: 6 лет 8 месяцев

Сообщений: 104

Симпатии: 34

Маска / The mask
Год выпуска: 1994
Страна: США
Жанр: Комедия
Продолжительность: 1:41:12
Перевод: Профессиональный (двухголосый)
Режиссер: Чак Рассел
В ролях: Джим Керри, Камерон Диас
Описание: Стэнли Ипкисс (Джим Керри) — мелкий банковский служащий, живущий в малюсенькой квартирке и владеющий неисправным автомобилем. Его постоянно все унижают: начальник, домовладелица и даже механики в автосервисе. Его единственные друзья — джек-рассел-терьер Майло и Чарли, коллега по работе.
Бандит Дориан Тайрелл (Питер Грин) заправляет шикарным ночным клубом «Коко Бонго». Желая занять место главаря банды, он вынашивает планы убийства нынешнего главаря, Нико. С целью подготовки ограбления Тайрелл подсылает свою сожительницу — певичку Тину Карлайл (Камерон Диас) — в банк, где работает Стэнли. Тина должна снять помещение банка скрытой камерой.
В банке Тина знакомится со Стенли, и они испытывают симпатию друг к другу. Желая увидеть Тину ещё раз, Стенли тем же вечером идёт в «Коко-Бонго», но его не пускает охрана. Не сумев попасть в клуб, Стэнли приезжает на своём разбитом старом автомобиле к грязной городской гавани. Там он находит загадочную деревянную маску. Вернувшись домой и надев маску, он превращается в зеленоголового трикстера в канареечном костюме. Выясняется, что маска наделяет своего обладателя магическими способностями. С их помощью Стэнли злобно шутит над оскорбившими его автомеханиками и наводит ужас на уличных бандитов, попытавшихся его ограбить.
На следующее утро к Стэнли заявляются сотрудник полиции Эдж-Сити, лейтенант Кэлловей (Питер Ригерт), и газетный репортёр Пэгги Брандт (Эми Ясбек), с вопросами по поводу ночных выходок Маски. При этом полицейский обращает внимание на пижаму, которую носит Стенли. Поначалу Стенли решает не привлекать к себе излишнего внимания, но искушение снова надеть маску оказывается слишком велико — Стенли нужны деньги на вход в «Коко Бонго», где выступает Тина.
Бандиты Тайрелла приступают к ограблению банка, но Маска вмешивается в ход операции и отбирает у бандитов похищенные ими деньги. В ходе перестрелки с полицией один из бандитов Тайрелла получает смертельное ранение. На отнятые у бандитов деньги Маска идёт в «Коко Бонго», где танцует с Тиной под аплодисменты посетителей. Тем временем Тайреллу докладывают о том, что именно Маска сорвал ограбление банка. В развязавшейся перестрелке Тайрелл отстреливает часть галстука Маски. Прибывший на место перестрелки Кэлловей задерживает Тайрелла по подозрению в ограблении банка, и находит на полу клуба клочок пижамы Стэнли (в который превратился кусок галстука Маски, отстреленный Тайреллом).
От эксперта по маскам Стенли узнаёт, что его находка изображает Локи, скандинавское божество обмана. Узнав об этом, Стенли приобретает уверенность в себе. На полученное от начальника по работе замечание он даёт суровую отповедь. Несмотря на то, что его разыскивают и полиция, и бандиты, Стэнли договаривается с Тиной о встрече в местном Лэндфилл-Парке. Свидание оканчивается неудачей: напористость Маски отпугивает Тину, к тому же их обнаруживает детектив Кэлловей. Для задержания Маски прибывает наряд полиции Эдж-Сити, но Маска, используя магические способности, сначала заставляет полицейских танцевать под песню «Cuban Pete», а потом скрывается. Во время побега Стэнли удаётся снять маску. Увидевшая это Пэгги помогает ему уйти от преследования, но затем передает его в руки Тайрелла за вознаграждение. Тайрелл надевает маску и становится демоническим, троллеподобным существом, после чего сдаёт Стэнли Кэлловею, вручив тому зелёную резиновую маску в качестве доказательства виновности Стенли. Стэнли помещают под стражу.
Тина навещает Стэнли в тюрьме, и он убеждает её бежать из города. Она пытается сделать это, но попадает в руки Тайрелла. Он везёт её в «Коко Бонго» на благотворительный бал, устроенный Нико для городской элиты. Надев маску, Тайрелл убивает Нико и минирует клуб, оставив Тину привязанной внутри.
Майло помогает Стэнли бежать из тюремной камеры. В участке Стенли попадается на глаза лейтенанта Келловея, но он вынуждает лейтенанта вывести его из участка. Они едут в клуб, чтобы спасти Тину. Подъехав к клубу, Стенли просит Келловея вызвать подкрепление, а сам тайком проникает в клуб. В клубе он попадает в руки бандитов. Тина убеждает Тайрелла снять маску. Майло в прыжке надевает маску на себя и она превращает его в мультяшного питбультерьера. Пока пёс расправляется с бандитами, Стэнли дерётся с Тайреллом и одерживает над ним верх.
Чтобы обезвредить бомбу и спасти Тину, Стенли в последний раз надевает маску. Он глотает бомбу, и та взрывается у него в животе, никому не причинив вреда. Затем он убивает Тайрелла, превратив декоративный фонтан в гигантский унитаз, и смыв бандита в канализацию. Мэр города, будучи очевидцем событий в клубе, по ошибке делает вывод, что Тайрелл был Маской с самого начала, и отводит Кэлловея в сторону «на пару слов» (очевидно, с целью приказать тому освободить Стэнли).
На рассвете Стэнли, Тина, Майло и Чарли отвозят маску обратно к гавани. Бросив маску в воду, Тина и Стэнли сливаются в поцелуе. Чарли пытается присвоить маску себе, но Майло оказывается проворнее и уплывает от него с маской в зубах.
Доп. информация: Бюджет 23 млн. $
Качество: BDRip
Формат: MKV
Видео кодек: V_MPEG4/ISO/AVC
Аудио кодек: AC3
Видео: 1920х1080, Bit rate : 10.6 Mbps,
Аудио: AC3, 48000 Гц, 6 кан, 16 бит, 448 kbps

Медиа инфо

Format : Matroska
Format version : Version 1
File size : 8.13 GiB
Duration : 1h 41mn
Overall bit rate : 11.5 Mbps
Encoded date : UTC 2009-03-08 12:55:26
Writing application : mkvmerge v2.2.0 ('Turn It On Again') built on Mar 4 2008 12:58:26
Writing library : libebml v0.7.7 + libmatroska v0.8.1
Video
ID : 1
Format : AVC
Format/Info : Advanced Video Codec
Format profile : [email protected]
Format settings, CABAC : Yes
Format settings, ReFrames : 4 frames
Codec ID : V_MPEG4/ISO/AVC
Duration : 1h 41mn
Bit rate : 10.6 Mbps
Width : 1 920 pixels
Height : 1 080 pixels
Display aspect ratio : 16:9
Frame rate : 23.976 fps
Color space : YUV
Chroma subsampling : 4:2:0
Bit depth : 8 bits
Scan type : Progressive
Bits/(Pixel*Frame) : 0.213
Stream size : 7.33 GiB (90%)
Writing library : x264 core 65 r1038 a7fd9f5
Encoding settings : cabac=1 / ref=4 / deblock=1:0:0 / analyse=0x3:0x113 / me=umh / subme=7 / psy_rd=1.0:0.0 / mixed_ref=1 / me_range=16 / chroma_me=1 / trellis=1 / 8x8dct=1 / cqm=0 / deadzone=21,11 / chroma_qp_offset=-2 / threads=6 / nr=0 / decimate=1 / mbaff=0 / bframes=3 / b_pyramid=1 / b_adapt=1 / b_bias=0 / direct=1 / wpredb=1 / keyint=250 / keyint_min=25 / scenecut=40(pre) / rc=2pass / bitrate=10598 / ratetol=1.0 / qcomp=0.60 / qpmin=10 / qpmax=51 / qpstep=4 / cplxblur=20.0 / qblur=0.5 / ip_ratio=1.40 / pb_ratio=1.30 / aq=1:1.00
Language : English
Default : Yes
Forced : No
Audio #1
ID : 2
Format : AC-3
Format/Info : Audio Coding 3
Mode extension : CM (complete main)
Codec ID : A_AC3
Duration : 1h 41mn
Bit rate mode : Constant
Bit rate : 448 Kbps
Channel(s) : 6 channels
Channel positions : Front: L C R, Side: L R, LFE
Sampling rate : 48.0 KHz
Bit depth : 16 bits
Compression mode : Lossy
Stream size : 324 MiB (4%)
Title : AC3 448 kbps
Language : Russian
Default : Yes
Forced : No
Audio #2
ID : 3
Format : AC-3
Format/Info : Audio Coding 3
Mode extension : CM (complete main)
Codec ID : A_AC3
Duration : 1h 41mn
Bit rate mode : Constant
Bit rate : 448 Kbps
Channel(s) : 6 channels
Channel positions : Front: L C R, Side: L R, LFE
Sampling rate : 48.0 KHz
Bit depth : 16 bits
Compression mode : Lossy
Stream size : 324 MiB (4%)
Title : AC3 448 kbps
Language : Russian
Default : No
Forced : No

Скриншоты







Последний раз редактировалось: Kubaev_Muhiddin (2013-01-25 21:15), всего редактировалось 4 раз(а)

Создавать темы 14-Фев-2012 04:21

[Профиль]  [ЛС] 

victor0778

Стаж: 6 лет 7 месяцев

Сообщений: 1670

Симпатии: 142

лог медиа инфо выложи

Создавать темы 14-Фев-2012 20:54

[Профиль]  [ЛС] 

Kubaev_Muhiddin ®

Стаж: 6 лет 8 месяцев

Сообщений: 104

Симпатии: 34

Лог медиа инфо в Скрытый текст

Создавать темы 15-Фев-2012 05:48

[Профиль]  [ЛС] 

victor0778

Стаж: 6 лет 7 месяцев

Сообщений: 1670

Симпатии: 142

следующий раз старайся примерно так оформлять. Единственое смущает перевод (двухголосый)

Создавать темы 19-Фев-2012 21:45

[Профиль]  [ЛС] 

VALTOSS

Стаж: 5 лет 7 месяцев

Сообщений: 12

Симпатии: 3

Сидеры,плизз,дайте скорости!!

Создавать темы 28-Мар-2012 22:53

[Профиль]  [ЛС] 

Dante_Drao

Стаж: 5 лет 8 месяцев

Сообщений: 21

Встаньте на раздачу, пожалуйста.

Создавать темы 01-Янв-2013 20:05

[Профиль]  [ЛС] 

натали

Стаж: 5 лет 7 месяцев

Сообщений: 26

Симпатии: 3

Встаньте на раздачу! Помогите скачать, пожалуйста!!!

Создавать темы 19-Янв-2014 23:17

[Профиль]  [ЛС] 

freestyle

Стаж: 5 лет 8 месяцев

Сообщений: 55

Симпатии: 4

как начнёте раздачу пожалуйста отправьте лс Заранее Спасибо

Создавать темы 23-Янв-2014 19:46

[Профиль]  [ЛС] 
Показать сообщения:    
Ответить на тему

Текущее время: 26-Сен 12:15

Часовой пояс: UTC + 5



Вы не можете начинать темы
Вы не можете отвечать на сообщения
Вы не можете редактировать свои сообщения
Вы не можете удалять свои сообщения
Вы не можете голосовать в опросах
Вы не можете прикреплять файлы к сообщениям
Вы не можете скачивать файлы