Паранормальное явление 3 / Paranormal Activity 3 (Генри Джуст, Эриель Шульман) [2011 г., ужасы, триллер, BDRip 720р]

Ответить на тему
 

ziyod ®

Стаж: 7 лет 7 месяцев

Сообщений: 367

Симпатии: 60

Паранормальное явление 3
Paranormal Activity 3
-«Узнайте, как всё началось»- Информация о фильме:
Год выпуска: 2011
Страна: США
Жанр: ужасы, триллер
Продолжительность: 01:24:08
Перевод: Профессиональный (полное дублирование)
Режиссер: Генри Джуст, Эриель Шульман-В ролях: Спрэг Грэйден, Кристофер Николас Смит, Дастин Ингрэм, Кэти Фезерстон, Лоурен Биттнер, Хлоя Ксенджери, Джесика Браун, Брайан Боланд, Марк Фредерикс-Описание: Действие фильма разворачивается в 1988 году. В доме, где живет семья с двумя детьми, начинают происходить странные вещи. Случилось это после того, как девочки Кэти и Кристи решили вызвать дух Кровавой Мэри и заснять все происходящее на видеокамеру. Никто не мог представить себе последствий детской шалости.-Рейтинг:
     -Файл:
Качество: BDRip 720р
Формат: MKV
Видео кодек: H.26x
Аудио кодек: AC3
Видео: 5471 kb/s, 1280x720
Аудио 1: Russian, 640 kb/s (6 ch)
Аудио 2: English, 640 kb/s (6 ch)
Сохранены оригинальные чаптеры bluray-

MI

General
Unique ID                                : 188113417173361827982421278577239407288 (0x8D855388E3B8AC34B8390FF9A54E3AB8)
Complete name                            : Paranormalnoe.javlenie.3.2011.D.BDRip.720p.mkv
Format                                   : Matroska
Format version                           : Version 2
File size                                : 4.05 GiB
Duration                                 : 1h 24mn
Overall bit rate                         : 6 888 Kbps
Encoded date                             : UTC 2012-02-13 07:39:20
Writing application                      : mkvmerge v3.4.0 ('Rapunzel') built on May 15 2010 09:38:20
Writing library                          : libebml v0.8.0 + libmatroska v0.9.0
Video
ID                                       : 1
Format                                   : AVC
Format/Info                              : Advanced Video Codec
Format profile                           : [email protected]
Format settings, CABAC                   : Yes
Format settings, ReFrames                : 9 frames
Codec ID                                 : V_MPEG4/ISO/AVC
Duration                                 : 1h 24mn
Bit rate                                 : 5 471 Kbps
Width                                    : 1 280 pixels
Height                                   : 720 pixels
Display aspect ratio                     : 16:9
Frame rate                               : 23.976 fps
Color space                              : YUV
Chroma subsampling                       : 4:2:0
Bit depth                                : 8 bits
Scan type                                : Progressive
Bits/(Pixel*Frame)                       : 0.248
Stream size                              : 3.22 GiB (79%)
Writing library                          : x264 core 120 r2120 0c7dab9
Encoding settings                        : cabac=1 / ref=9 / deblock=1:-3:-3 / analyse=0x3:0x133 / me=umh / subme=11 / psy=1 / psy_rd=1.10:0.10 / mixed_ref=1 / me_range=24 / chroma_me=1 / trellis=2 / 8x8dct=1 / cqm=0 / deadzone=21,11 / fast_pskip=0 / chroma_qp_offset=-3 / threads=12 / sliced_threads=0 / nr=0 / decimate=0 / interlaced=0 / bluray_compat=0 / constrained_intra=0 / bframes=7 / b_pyramid=2 / b_adapt=2 / b_bias=0 / direct=3 / weightb=1 / open_gop=0 / weightp=2 / keyint=250 / keyint_min=23 / scenecut=40 / intra_refresh=0 / rc_lookahead=150 / rc=crf / mbtree=1 / crf=16.0 / qcomp=0.60 / qpmin=0 / qpmax=69 / qpstep=4 / ip_ratio=1.40 / aq=1:1.00
Language                                 : English
Default                                  : No
Forced                                   : No
Audio #1
ID                                       : 2
Format                                   : AC-3
Format/Info                              : Audio Coding 3
Mode extension                           : CM (complete main)
Codec ID                                 : A_AC3
Duration                                 : 1h 24mn
Bit rate mode                            : Constant
Bit rate                                 : 640 Kbps
Channel(s)                               : 6 channels
Channel positions                        : Front: L C R, Side: L R, LFE
Sampling rate                            : 48.0 KHz
Bit depth                                : 16 bits
Compression mode                         : Lossy
Stream size                              : 385 MiB (9%)
Title                                    : Russian @ DD 5.1 @ 640 kbps
Language                                 : Russian
Default                                  : Yes
Forced                                   : No
Audio #2
ID                                       : 3
Format                                   : AC-3
Format/Info                              : Audio Coding 3
Mode extension                           : CM (complete main)
Codec ID                                 : A_AC3
Duration                                 : 1h 24mn
Bit rate mode                            : Constant
Bit rate                                 : 640 Kbps
Channel(s)                               : 6 channels
Channel positions                        : Front: L C R, Side: L R, LFE
Sampling rate                            : 48.0 KHz
Bit depth                                : 16 bits
Compression mode                         : Lossy
Stream size                              : 385 MiB (9%)
Title                                    : English @ DD 5.1 @ 640 kbps
Language                                 : English
Default                                  : No
Forced                                   : No
Text #1
ID                                       : 4
Format                                   : UTF-8
Codec ID                                 : S_TEXT/UTF8
Codec ID/Info                            : UTF-8 Plain Text
Language                                 : English
Default                                  : No
Forced                                   : No
Text #2
ID                                       : 5
Format                                   : UTF-8
Codec ID                                 : S_TEXT/UTF8
Codec ID/Info                            : UTF-8 Plain Text
Title                                    : SDH
Language                                 : English
Default                                  : No
Forced                                   : No
Menu
00:00:00.000                             : en:00:00:00.000
00:04:25.390                             : en:00:04:25.390
00:08:56.786                             : en:00:08:56.786
00:12:53.564                             : en:00:12:53.564
00:16:41.000                             : en:00:16:41.000
00:23:11.390                             : en:00:23:11.390
00:29:45.200                             : en:00:29:45.200
00:33:52.030                             : en:00:33:52.030
00:39:53.391                             : en:00:39:53.391
00:47:54.872                             : en:00:47:54.872
00:59:03.540                             : en:00:59:03.540
01:02:48.765                             : en:01:02:48.765
01:06:39.287                             : en:01:06:39.287
01:18:45.721                             : en:01:18:45.721
-

==>СКРИНШОТЫ<==





Последний раз редактировалось: ziyod (2012-02-17 18:28), всего редактировалось 1 раз

Создавать темы 14-Фев-2012 07:32

[Профиль]  [ЛС] 

Sirius13

Стаж: 5 лет 8 месяцев

Сообщений: 8

Дайте раздачи плиз

Создавать темы 15-Фев-2012 22:04

[Профиль]  [ЛС] 

scare.sunny

Стаж: 5 лет 7 месяцев

Сообщений: 16

дайте скачать, раздачи вообще нету что ли?

Создавать темы 17-Мар-2012 10:20

[Профиль]  [ЛС] 

FrozenMen

Стаж: 5 лет 4 месяца

Сообщений: 4

ДАЙТИЕ СКОРОСТЬ ПОЖЕ!!!!!!!!!!!! СКАЧАТЬ ХОЧУ!

Создавать темы 10-Июн-2012 13:19

[Профиль]  [ЛС] 

wordice

Стаж: 5 лет 5 месяцев

Сообщений: 13

дайте раздачу плиззз

Создавать темы 11-Дек-2014 18:02

[Профиль]  [ЛС] 
Показать сообщения:    
Ответить на тему

Текущее время: 18-Окт 21:57

Часовой пояс: UTC + 5



Вы не можете начинать темы
Вы не можете отвечать на сообщения
Вы не можете редактировать свои сообщения
Вы не можете удалять свои сообщения
Вы не можете голосовать в опросах
Вы не можете прикреплять файлы к сообщениям
Вы не можете скачивать файлы