Королева Бензоколонки (Николай Литус, Алексей Мишурин) [1963 г., комедия, DVD5]

Ответить на тему
 

Judas Desperados ®

Стаж: 5 лет 8 месяцев

Сообщений: 185

Симпатии: 19

Королева Бензоколонки- Год выпуска: 1963
Жанр: Комедия
Продолжительность: 01:18:00
Субтитры: Русский
Режиссер: Николай Литус, Алексей Мишурин-В ролях:
Надежда Румянцева — Людмила Добрыйвечер
Андрей Сова — Панас Петрович
Алексей Кожевников — Тарас
Нонна Копержинская — Рогнеда Карповна
Юрий Белов — Славка
Владимир Белокуров — «Медведь», Александр Ефимович Медведь, водитель первого класса
Сергей Блинников — товарищ Бабий
Николай Яковченко — товарищ Лопата--Описание: Мечта очаровательной девушки Людмилы Добрыйвечер — танцевать в балете на льду. Но… она не проходит по конкурсу, и ей приходится искать работу. После многих забавных приключений, она устраивается заправщицей на бензоколонку. Однако приключения на этом не заканчиваются…- -Формат: DVD5
Видео кодек: VOB
Аудио кодек: AC3 и DTS
Видео: 720х576, MPEG Video, 25,000 кадров/сек, Битрейт: 6484 Кбит/сек
Аудио №1: AC3, 6 каналов 384 Кбит/сек
Аудио №2: DTS, 6 каналов, 755 Кбит/сек

Знаете ли вы...

    Фильм начинается с небольшой экскурсия по Киеву из окна автобуса «Киев - Ялта». Маршрут движения проходит по Крещатику, камера задерживается на Прорезной улице, гостинице «Украина» на Площади Независимости, по улицам с цветущими каштанами, Днепровской набережной, мимо строительства новых микрорайонов, парка им. Пушкина (в кадре прогуливающиеся мамаши с колясками на фоне памятника Александру Сергеевичу).
    Водитель кинотрейлера, создавший ДТП на трассе, в ответ на замечание Людмилы Добрыйвечер парирует: «Каждый стиляга еще указывать будет».
На момент съёмок Надежде Румянцевой, исполняющей роль 17-летней девушки, было уже 32 года.
    Поскольку основное место действия разворачивается возле АЗС, в фильме постоянно фигурируют множество автомобилей 50-60-х гг. Персонажи фильма Славка и Медведь ездят на опытных машинах: автобусе ЛАЗ-Украина-1 (1961) и БелАЗ-540 (1962), а в эпизоде с иностранцами есть настоящий Cadillac Series 62.
    Эпизод с пчёлами снимался на центральной площади города Белая Церковь. В сентябре 2010 года в честь этого события на здании, напротив которого велась съёмка, была установлена мемориальная табличка с изображением исполнительницы главной роли — Надежды Румянцевой.
    В фильме есть одна фундаментальная нестыковка — дело в том, что в СССР водители заправляли автомобили предприятий не за «живые» деньги, а за талоны, которые выдавались на предприятии. Поэтому, эпизод с водителем БелАЗа, который забыл заплатить за бензин, был невозможен. К тому же, в то время существовали отдельные АЗС: для физлиц, и для автомобилей предприятий. В фильме, на АЗС заправляются и те, и другие. Если предположить, что АЗС из фильма была для предприятий, то Панас Петрович и Людмила Добрыйвечер продавали бензин «налево».
    Фамилия главной героини Добрыйвечер, возможно взята у украинского боксера 20-х годов, о нем вспоминал актер Б. Сичкин в книге «Я из Одессы! Здрасте!»:'Я не пропускал соревнования по боксу. Был боксёр по фамилии Добрый Вечер. Когда объявляли его фамилию, зал со смехом отвечал: «Здрасьте». У Доброго Вечера была необычайная стойка, руки внизу, никакой защиты, весь открыт, танцевал по рингу, маневрировал, и в него трудно было попасть. Хорошо защищался и хорошо контратаковал. Работал хорошо. Все его знали и любили как боксёра.'

Media Info

Видео
Идентификатор                            : 224 (0xE0)
Формат                                   : MPEG Video
Версия формата                           : Version 2
Профиль формата                          : [email protected]
Параметр BVOP формата                    : Да
Параметр матрицы формата                 : Выборочная
Параметр GOP формата                     : M=3, N=12
Продолжительность                        : 17 м.
Вид битрейта                             : Переменный
Битрейт                                  : 6484 Кбит/сек
Максимальный битрейт                     : 8500 Кбит/сек
Ширина                                   : 720 пикселей
Высота                                   : 576 пикселей
Соотношение сторон                       : 4:3
Частота кадров                           : 25,000 кадров/сек
Стандарт вещания                         : PAL
Цветовое пространство                    : YUV
Субдискретизация насыщенности            : 4:2:0
Битовая глубина                          : 8 бит
Тип развёртки                            : Чересстрочная
Порядок развёртки                        : Верхнее поле первое
Метод сжатия                             : С потерями
Бит/(Пиксели*Кадры)                      : 0.625
Размер потока                            : 834 Мбайт (83%)
Аудио #1
Идентификатор                            : 189 (0xBD)-128 (0x80)
Формат                                   : AC-3
Формат/Информация                        : Audio Coding 3
Расширение режима                        : CM (complete main)
Режим смешивания                         : DVD-Video
Продолжительность                        : 17 м.
Вид битрейта                             : Постоянный
Битрейт                                  : 384 Кбит/сек
Каналы                                   : 6 каналов
Расположение каналов                     : Front: L C R, Side: L R, LFE
Частота                                  : 48,0 КГц
Битовая глубина                          : 16 бит
Метод сжатия                             : С потерями
Задержка видео                           : -296 мс.
Размер потока                            : 49,4 Мбайт (5%)
Аудио #2
Идентификатор                            : 189 (0xBD)-137 (0x89)
Формат                                   : DTS
Формат/Информация                        : Digital Theater Systems
Режим смешивания                         : DVD-Video
Продолжительность                        : 17 м.
Вид битрейта                             : Постоянный
Битрейт                                  : 755 Кбит/сек
Каналы                                   : 6 каналов
Расположение каналов                     : Front: L C R, Side: L R, LFE
Частота                                  : 48,0 КГц
Битовая глубина                          : 24 бит
Метод сжатия                             : С потерями
Задержка видео                           : -339 мс.
Размер потока                            : 97,0 Мбайт (10%)

Скриншоты





Последний раз редактировалось: Judas Desperados (2012-02-16 10:58), всего редактировалось 6 раз(а)

Создавать темы 14-Фев-2012 18:16

[Профиль]  [ЛС] 

Mixer City

Стаж: 6 лет 9 месяцев

Сообщений: 754

Симпатии: 63

Judas Desperados, под описанием стандартный набор тех. данных допиши ...

Создавать темы 14-Фев-2012 19:30

[Профиль]  [ЛС] 

victor0778

Стаж: 6 лет 8 месяцев

Сообщений: 1670

Симпатии: 142

заполни тех. данные по шаблону и скриншотов должно быть минимум 3 штуки.

Создавать темы 14-Фев-2012 20:46

[Профиль]  [ЛС] 

senya

Стаж: 7 лет 1 месяц

Сообщений: 14

Judas Desperados Respect тебе за фильм, года 4 искал в качестве.
Может у тебя завалялся фильм "На Дерибасовской хорошая погода или на Брайтон бич опять идут дожди"? С удовольствием посмотрел бы.

Создавать темы 14-Фев-2012 21:05

[Профиль]  [ЛС] 

Judas Desperados ®

Стаж: 5 лет 8 месяцев

Сообщений: 185

Симпатии: 19

Вроде все

Создавать темы 15-Фев-2012 15:48

[Профиль]  [ЛС] 

Judas Desperados ®

Стаж: 5 лет 8 месяцев

Сообщений: 185

Симпатии: 19

senya, не( такого нету. еще пороюсь в дисках, других СССРских было вроде

Создавать темы 15-Фев-2012 20:47

[Профиль]  [ЛС] 

Judas Desperados ®

Стаж: 5 лет 8 месяцев

Сообщений: 185

Симпатии: 19

лови Макс скорость)

Создавать темы 15-Фев-2012 20:49

[Профиль]  [ЛС] 

senya

Стаж: 7 лет 1 месяц

Сообщений: 14

Спасибо

Создавать темы 16-Фев-2012 07:53

[Профиль]  [ЛС] 

victor0778

Стаж: 6 лет 8 месяцев

Сообщений: 1670

Симпатии: 142

видео кодек здесь другой, а точнее VOB, и битрейт видео укажи и убери ссылки из под актёров

Создавать темы 16-Фев-2012 09:22

[Профиль]  [ЛС] 

Judas Desperados ®

Стаж: 5 лет 8 месяцев

Сообщений: 185

Симпатии: 19

спасибо за пояснение. исправил

Создавать темы 16-Фев-2012 09:40

[Профиль]  [ЛС] 

victor0778

Стаж: 6 лет 8 месяцев

Сообщений: 1670

Симпатии: 142

битрейт видео???

Создавать темы 16-Фев-2012 10:07

[Профиль]  [ЛС] 

Judas Desperados ®

Стаж: 5 лет 8 месяцев

Сообщений: 185

Симпатии: 19

добавил

Создавать темы 16-Фев-2012 11:26

[Профиль]  [ЛС] 

makdak

Стаж: 4 года 8 месяцев

Сообщений: 5

У кого остался этот фильм, встаньте на раздачу

Создавать темы 02-Окт-2013 16:28

[Профиль]  [ЛС] 
Показать сообщения:    
Ответить на тему

Текущее время: 19-Окт 23:13

Часовой пояс: UTC + 5



Вы не можете начинать темы
Вы не можете отвечать на сообщения
Вы не можете редактировать свои сообщения
Вы не можете удалять свои сообщения
Вы не можете голосовать в опросах
Вы не можете прикреплять файлы к сообщениям
Вы не можете скачивать файлы