Любовь и голуби (Владимир Меньшов) [1984 г., мелодрама, комедия, BDRip-AVC](720p)

Ответить на тему
 

Cheburashka ®

Стаж: 5 лет 9 месяцев

Сообщений: 54

Симпатии: 41

Любовь и голуби

Год выпуска: 1984
Жанр: мелодрама, комедия
Продолжительность: 01:44:44--Режиссер: Владимир Меньшов--В ролях: Александр Михайлов, Нина Дорошина, Людмила Гурченко, Сергей Юрский, Наталья Тенякова, Янина Лисовская, Игорь Лях, Лада Сизоненко, Владимир Меньшов--Описание: Ликвидируя неисправность лебедки, Василий Кузякин получил травму и путевку на юг. Встретил роковую женщину Раису Захаровну и… вернулся Вася с курорта не к себе в деревню, а в дом Раисы Захаровны. Началась для него новая жизнь, в которой было много непонятного и интересного, но не было дома, где остались Надя, дети и голуби…--Качество: BDRip
Формат: MKV
Видео кодек: H264
Аудио кодек: AC3
Видео: MPEG4 Video (H264) 1280x720 23.976fps 5 528 kb/s
Аудио: Dolby AC3 48000Hz 6ch 448kbps

MI

General
Unique ID : 236227162137215427163676665430380917496 (0xB1B7B24F61B53E44AB48D4127A3032F8)
Complete name : G:\Кино_1900_2000\Lubov.i.golubi.1984.BDRip.720p.mkv
Format : Matroska
Format version : Version 4 / Version 2
File size : 4.37 GiB
Duration : 1 h 44 min
Overall bit rate : 5 978 kb/s
Encoded date : UTC 2013-07-07 08:25:11
Writing application : mkvmerge v6.1.0 ('Old Devil') built on Mar 2 2013 14:32:37
Writing library : libebml v1.3.0 + libmatroska v1.4.0
Video
ID : 1
Format : AVC
Format/Info : Advanced Video Codec
Format profile : [email protected]
Format settings, CABAC : Yes
Format settings, ReFrames : 8 frames
Codec ID : V_MPEG4/ISO/AVC
Duration : 1 h 44 min
Bit rate : 5 528 kb/s
Width : 1 280 pixels
Height : 720 pixels
Display aspect ratio : 16:9
Frame rate mode : Constant
Frame rate : 23.976 FPS
Color space : YUV
Chroma subsampling : 4:2:0
Bit depth : 8 bits
Scan type : Progressive
Bits/(Pixel*Frame) : 0.250
Stream size : 3.96 GiB (91%)
Writing library : x264 core 130 r2273 b3065e6
Encoding settings : cabac=1 / ref=8 / deblock=1:-2:-2 / analyse=0x3:0x133 / me=umh / subme=9 / psy=1 / psy_rd=1.00:0.10 / mixed_ref=1 / me_range=32 / chroma_me=1 / trellis=2 / 8x8dct=1 / cqm=0 / deadzone=21,11 / fast_pskip=1 / chroma_qp_offset=-3 / threads=6 / lookahead_threads=1 / sliced_threads=0 / nr=0 / decimate=1 / interlaced=0 / bluray_compat=0 / constrained_intra=0 / bframes=8 / b_pyramid=2 / b_adapt=2 / b_bias=0 / direct=3 / weightb=1 / open_gop=0 / weightp=2 / keyint=250 / keyint_min=23 / scenecut=40 / intra_refresh=0 / rc=2pass / mbtree=0 / bitrate=5528 / ratetol=1.0 / qcomp=0.60 / qpmin=0 / qpmax=69 / qpstep=4 / cplxblur=20.0 / qblur=0.5 / ip_ratio=1.40 / pb_ratio=1.30 / aq=2:0.90
Language : Russian
Default : Yes
Forced : No
Audio
ID : 2
Format : AC-3
Format/Info : Audio Coding 3
Mode extension : CM (complete main)
Format settings, Endianness : Big
Codec ID : A_AC3
Duration : 1 h 44 min
Bit rate mode : Constant
Bit rate : 448 kb/s
Channel(s) : 6 channels
Channel positions : Front: L C R, Side: L R, LFE
Sampling rate : 48.0 kHz
Frame rate : 31.250 FPS (1536 spf)
Compression mode : Lossy
Stream size : 336 MiB (7%)
Language : Russian
Default : Yes
Forced : No
Menu
00:00:00.000 : en:00:00:00.000
00:07:08.678 : en:00:07:08.678
00:13:18.840 : en:00:13:18.840
00:17:04.982 : en:00:17:04.982
00:24:56.036 : en:00:24:56.036
00:33:11.031 : en:00:33:11.031
00:40:17.790 : en:00:40:17.790
00:47:41.317 : en:00:47:41.317
00:52:54.505 : en:00:52:54.505
00:59:58.094 : en:00:59:58.094
01:07:48.398 : en:01:07:48.398
01:17:34.483 : en:01:17:34.483
01:24:02.246 : en:01:24:02.246
01:29:57.601 : en:01:29:57.601
01:34:37.255 : en:01:34:37.255
01:40:07.210 : en:01:40:07.210


Последний раз редактировалось: Cheburashka (2016-11-07 16:00), всего редактировалось 3 раз(а)

Создавать темы 14-Фев-2012 19:39

[Профиль]  [ЛС] 

Kaleriya

Стаж: 5 лет 7 месяцев

Сообщений: 19

Выйдите пожалуйста на раздачу. Заранее благодарна!

Создавать темы 10-Май-2012 10:37

[Профиль]  [ЛС] 

Евгения1982

Стаж: 5 лет 6 месяцев

Сообщений: 7

старый добрый фильм)

Создавать темы 08-Июл-2012 09:21

[Профиль]  [ЛС] 

Albina

Стаж: 5 лет 2 месяца

Сообщений: 1

Cheburashka, этот фильм замечательный для всех покалений

Создавать темы 06-Окт-2012 10:04

[Профиль]  [ЛС] 

ELIAS

Стаж: 5 лет 10 месяцев

Сообщений: 16

Симпатии: 2

Встаньте пожлуйсто на раздачу плиз

Создавать темы 29-Ноя-2012 16:07

[Профиль]  [ЛС] 

Cheburashka ®

Стаж: 5 лет 9 месяцев

Сообщений: 54

Симпатии: 41

Всем привет! Я этот файл удалил, есть другой ♥ Тут

MI

General
Complete name : L:\Кино_рус_2000\Lyubov.i.golubi.1984.RUS.BDRip.XviD.AC3.-HQCLUB.avi
Format : AVI
Format/Info : Audio Video Interleave
File size : 1.85 GiB
Duration : 1h 44mn
Overall bit rate : 2 532 Kbps
Movie name : Lyubov.i.golubi.1984.RUS.BDRip.XviD.AC3.-HQCLUB
Director : kingsize87
Writing application : VirtualDubMod 1.5.10.2 (build 2542/release)
Copyright : http://hqclub.net
Comment : 22.12.2010
Video
ID : 0
Format : MPEG-4 Visual
Format profile : Advanced [email protected]
Format settings, BVOP : 1
Format settings, QPel : No
Format settings, GMC : No warppoints
Format settings, Matrix : Custom
Codec ID : XVID
Codec ID/Hint : XviD
Duration : 1h 44mn
Bit rate : 2 075 Kbps
Width : 720 pixels
Height : 400 pixels
Display aspect ratio : 16:9
Frame rate : 23.976 fps
Color space : YUV
Chroma subsampling : 4:2:0
Bit depth : 8 bits
Scan type : Progressive
Compression mode : Lossy
Bits/(Pixel*Frame) : 0.300
Stream size : 1.52 GiB (82%)
Writing library : XviD 1.2.1 (UTC 2008-12-04)
Audio
ID : 1
Format : AC-3
Format/Info : Audio Coding 3
Mode extension : CM (complete main)
Format settings, Endianness : Big
Codec ID : 2000
Duration : 1h 44mn
Bit rate mode : Constant
Bit rate : 448 Kbps
Channel(s) : 6 channels
Channel positions : Front: L C R, Side: L R, LFE
Sampling rate : 48.0 KHz
Bit depth : 16 bits
Compression mode : Lossy
Stream size : 336 MiB (18%)
Alignment : Split accross interleaves
Interleave, duration : 42 ms (1.00 video frame)
Interleave, preload duration : 500 ms

Скриншот

Создавать темы 10-Фев-2013 20:36

[Профиль]  [ЛС] 

tasikss

Стаж: 6 лет 10 месяцев

Сообщений: 139

Симпатии: 10

все я встал на раздачу

_________________
Подпись отключена за нарушение правил форума

Создавать темы 11-Фев-2013 15:09

[Профиль]  [ЛС] 
Показать сообщения:    
Ответить на тему

Текущее время: 22-Ноя 20:02

Часовой пояс: UTC + 5



Вы не можете начинать темы
Вы не можете отвечать на сообщения
Вы не можете редактировать свои сообщения
Вы не можете удалять свои сообщения
Вы не можете голосовать в опросах
Вы не можете прикреплять файлы к сообщениям
Вы не можете скачивать файлы