Другой мир: Пробуждение / Underworld: Awakening (Манс Марлинд, Бьёрн Стейн) [2012 г., ужасы, фэнтези, боевик, DVDRip-AVC]

Страницы :  1, 2  След.

Ответить на тему
 

ziyod ®

Стаж: 7 лет 5 месяцев

Сообщений: 367

Симпатии: 60

--- --«Месть проснулась» -Информация о фильме:
Год выпуска: 2012
Страна: США
Жанр: ужасы, фэнтези, боевик
Продолжительность: 01:25:10
Перевод: Профессиональный (полное дублирование) [лицензия]
Режиссер: Манс Марлинд, Бьёрн Стейн-В ролях: Кейт Бекинсейл, Майкл Или, Чарльз Дэнс, Индия Айли, Стивен Ри, Кристен Холден-Рид, Сандрин Холт, Ричард Цетрон, Тео Джеймс, Роберт Лоуренсон-Описание: Через пятнадцать лет в состоянии, близком к коматозному, Селин узнает о существовании родной четырнадцатилетней дочери Ниссы — гибрида вампира и ликана. И Селин необходимо помешать БиоКом создать суперликанов, которые убьют их всех.-Рейтинг:
     -Файл:
Качество: DVDRip-AVC
Формат: MKV
Видео кодек: H.26x
Аудио кодек: AC3
Видео: MPEG-4 AVC, 1423 Кбит/с, [email protected]
Аудио: 6 ch, 448 Кбит/с-

MI

General
Unique ID                                : 172405038553114253388367607303380261937 (0x81B400AC71596675878B21762081DC31)
Complete name                            : Drugoi.mir.Probuzhdenie.2012.x264.DVDRip.(AVC).mkv
Format                                   : Matroska
Format version                           : Version 2
File size                                : 1.11 GiB
Duration                                 : 1h 25mn
Overall bit rate                         : 1 871 Kbps
Encoded date                             : UTC 2012-02-15 06:01:50
Writing application                      : mkvmerge v4.9.1 ('Ich will') сборка от Jul 11 2011 23:53:15
Writing library                          : libebml v1.2.1 + libmatroska v1.1.1
Video
ID                                       : 1
Format                                   : AVC
Format/Info                              : Advanced Video Codec
Format profile                           : [email protected]
Format settings, CABAC                   : Yes
Format settings, ReFrames                : 9 frames
Muxing mode                              : Header stripping
Codec ID                                 : V_MPEG4/ISO/AVC
Duration                                 : 1h 25mn
Bit rate                                 : 1 423 Kbps
Width                                    : 720 pixels
Height                                   : 428 pixels
Display aspect ratio                     : 2.40:1
Original display aspect ratio            : 2.40:1
Frame rate                               : 25.000 fps
Color space                              : YUV
Chroma subsampling                       : 4:2:0
Bit depth                                : 8 bits
Scan type                                : Progressive
Bits/(Pixel*Frame)                       : 0.185
Stream size                              : 844 MiB (74%)
Writing library                          : x264 core 116 r2074 2641b9e
Encoding settings                        : cabac=1 / ref=9 / deblock=1:0:0 / analyse=0x3:0x133 / me=umh / subme=7 / psy=1 / psy_rd=1.00:0.00 / mixed_ref=1 / me_range=32 / chroma_me=1 / trellis=2 / 8x8dct=1 / cqm=0 / deadzone=21,11 / fast_pskip=0 / chroma_qp_offset=-2 / threads=6 / sliced_threads=0 / nr=0 / decimate=1 / interlaced=0 / bluray_compat=0 / constrained_intra=0 / bframes=5 / b_pyramid=2 / b_adapt=2 / b_bias=0 / direct=3 / weightb=1 / open_gop=0 / weightp=2 / keyint=250 / keyint_min=25 / scenecut=40 / intra_refresh=0 / rc_lookahead=40 / rc=2pass / mbtree=1 / bitrate=1423 / ratetol=1.0 / qcomp=0.60 / qpmin=10 / qpmax=51 / qpstep=4 / cplxblur=20.0 / qblur=0.5 / ip_ratio=1.40 / aq=1:1.00
Language                                 : English
Default                                  : Yes
Forced                                   : No
Audio
ID                                       : 2
Format                                   : AC-3
Format/Info                              : Audio Coding 3
Mode extension                           : CM (complete main)
Muxing mode                              : Header stripping
Codec ID                                 : A_AC3
Duration                                 : 1h 25mn
Bit rate mode                            : Constant
Bit rate                                 : 448 Kbps
Channel(s)                               : 6 channels
Channel positions                        : Front: L C R, Side: L R, LFE
Sampling rate                            : 48.0 KHz
Bit depth                                : 16 bits
Compression mode                         : Lossy
Stream size                              : 273 MiB (24%)
Title                                    : AC-3, 6 ch, 448 КБИТ,C
Language                                 : Russian
Default                                  : Yes
Forced                                   : No
-

==>СКРИНШОТЫ<==



--- --ОБЛОЖКИ


Последний раз редактировалось: ziyod (2012-02-16 11:15), всего редактировалось 1 раз

Создавать темы 16-Фев-2012 07:16

[Профиль]  [ЛС] 

buldozer

Стаж: 5 лет 6 месяцев

Сообщений: 79

Симпатии: 6

дождался спс будем качать

Создавать темы 16-Фев-2012 08:05

[Профиль]  [ЛС] 

maxik

Стаж: 5 лет 9 месяцев

Сообщений: 32

Спасибо за Релиз!

Создавать темы 16-Фев-2012 11:33

[Профиль]  [ЛС] 

Kaktus

Стаж: 5 лет 7 месяцев

Сообщений: 10

И чем же он отличается от другого релиза?

Создавать темы 16-Фев-2012 11:49

[Профиль]  [ЛС] 

edgemza

Стаж: 6 лет 3 месяца

Сообщений: 191

Симпатии: 7

И чем же он отличается от другого релиза?
МАТРЕШКА!

Создавать темы 16-Фев-2012 19:28

[Профиль]  [ЛС] 

ziyod ®

Стаж: 7 лет 5 месяцев

Сообщений: 367

Симпатии: 60

МАТРЕШКА!
не только форматом...

Создавать темы 17-Фев-2012 08:55

[Профиль]  [ЛС] 

Павлик

Стаж: 5 лет 7 месяцев

Сообщений: 5

Спасибо классный фильмец

Создавать темы 18-Фев-2012 12:15

[Профиль]  [ЛС] 

krakeza

Стаж: 7 лет 1 месяц

Сообщений: 30

Симпатии: 1

Что-то на скринах какието лица вытянутые!

Создавать темы 20-Фев-2012 20:19

[Профиль]  [ЛС] 

ibragimof

Стаж: 6 лет 4 месяца

Сообщений: 253

Симпатии: 48

ziyod, а BDRip будет?..

Создавать темы 23-Фев-2012 16:49

[Профиль]  [ЛС] 

Pendalf

Стаж: 6 лет 2 месяца

Сообщений: 416

Симпатии: 34

ibragimof, http://tas-ix.net/viewtopic.php?p=321641#321641

Создавать темы 23-Фев-2012 16:54

[Профиль]  [ЛС] 

Fantriller

Стаж: 5 лет 5 месяцев

Сообщений: 59

Симпатии: 1

Фильм отпад! респект автору! буйм ждать след. части говорят 2015 году выйдет последняя часть. так как каждую часть выпускают каждые 3 года 2003-2006-2009-2012!!! спс за фильм

Создавать темы 25-Фев-2012 13:49

[Профиль]  [ЛС] 

jokerbek

Стаж: 6 лет 8 месяцев

Сообщений: 184

Симпатии: 9

Спасибо классный филмь

Создавать темы 25-Фев-2012 15:02

[Профиль]  [ЛС] 

jamik_84

Стаж: 6 лет 3 месяца

Сообщений: 24

фильм нормул-

Создавать темы 28-Фев-2012 13:09

[Профиль]  [ЛС] 

Сарвар

Стаж: 5 лет 7 месяцев

Сообщений: 20

Филим Супер Всем Рикаминдую и Скорость тоже супер ay

Создавать темы 07-Мар-2012 12:06

[Профиль]  [ЛС] 

Neo_Max

Стаж: 7 лет

Сообщений: 21

Симпатии: 1

Cпс будем качать

Создавать темы 26-Мар-2012 15:49

[Профиль]  [ЛС] 
Показать сообщения:    
Ответить на тему

Текущее время: 18-Авг 08:09

Часовой пояс: UTC + 5



Вы не можете начинать темы
Вы не можете отвечать на сообщения
Вы не можете редактировать свои сообщения
Вы не можете удалять свои сообщения
Вы не можете голосовать в опросах
Вы не можете прикреплять файлы к сообщениям
Вы не можете скачивать файлы