Жмурки (Алексей Балабанов) [2005 г., комедия, криминал, BDRip-AVC]

Ответить на тему
 

Cheburashka ®

Стаж: 5 лет 6 месяцев

Сообщений: 54

Симпатии: 41

Жмурки

Год выпуска: 2005
Жанр: Комедия, криминал
Продолжительность: 01:51:22
Режиссер: Алексей Балабанов
В ролях: Виктор Сухоруков, Алексей Серебряков, Рената Литвинова, Гарик Сукачев, Юрий Степанов, Татьяна Догилева, Григорий Сиятвинда, Дмитрий Певцов, Андрей Краско, Андрей Мерзликин, Виктор Бычков, Анатолий Журавлев, Андрей Панин, Дмитрий Дюжев, Александр Баширов, Алексей Панин, Никита Михалков, Сергей Маковецкий и др.
Описание: Действие разворачивает в одном провинциальном городке. Двое «братков» по заданию своего босса должны были забрать чемодан с героином, но чемодан попадает в руки других бандитов, которые подрядились украсть чемодан, думая, что там не героин, а деньги. Босс требует, чтобы чемодан с героином был немедленно найден, двое друзей отправляются на его поиски, если героин не будет найден, им явно не поздоровится. Когда бандиты узнают что находится в чемодане на самом деле, они понимают, что по-крупному влипли. Теперь им придется сыграть в жмурки.
Доп. информация: * В ранней версии сценария фильма было 18 трупов.
* Автомобиль Саймона и Серёги — BMW 520i— популярная машина среди бандитов.
* В ходе съёмок было израсходовано 50 литров фальшивой крови.
* Рабочее название фильма — «Кавардак».
* На МКФ в Хельсинки (Финляндия) фильм был представлен под названием «Блеф мертвеца».
* Механизм, прячущий пистолеты в рукавах, был ранее показан в фильме «Чужой: Воскрешение», но отличался устройством в силу фантастичности самого фильма. В фильме «Жмурки» он выглядит реалистичней. Ещё подобный механизм использовали герой Роберта Де Ниро в фильме «Таксист», Антонио Бандераса в фильме «Отчаянный», князь Пожарский в фильме «Статский советник», Эд О’Росс в фильме «Красная жара», профессор Мориарти в фильме «Шерлок Холмс» 2009 г.
Качество: BDRip-AVC
Формат: MKV
Видео кодек: AVC/H.264
Аудио кодек: AC3
Видео: 1024x576, 23.976 fps, 2 176 Kbps
Аудио: 6 channels, 48.0 KHz, 448 Kbps

Media Info

General
Unique ID : 215708821946366906173077088624070739127 (0xA2480208B75FC1C290129084B4C9C4B7)
Complete name : I:\Кино_рус\Zhmurki.2005.x264.BDRip.(AVC).vanekzp.mkv
Format : Matroska
Format version : Version 2
File size : 2.04 GiB
Duration : 1h 51mn
Overall bit rate : 2 623 Kbps
Encoded date : UTC 2011-03-04 01:13:55
Writing application : mkvmerge v3.3.0 ('Language') built on Mar 24 2010 14:59:24
Writing library : libebml v0.8.0 + libmatroska v0.9.0
Video
ID : 1
Format : AVC
Format/Info : Advanced Video Codec
Format profile : [email protected]
Format settings, CABAC : Yes
Format settings, ReFrames : 8 frames
Codec ID : V_MPEG4/ISO/AVC
Duration : 1h 51mn
Bit rate : 2 176 Kbps
Width : 1 024 pixels
Height : 576 pixels
Display aspect ratio : 16:9
Frame rate : 23.976 fps
Color space : YUV
Chroma subsampling : 4:2:0
Bit depth : 8 bits
Scan type : Progressive
Bits/(Pixel*Frame) : 0.154
Stream size : 1.65 GiB (81%)
Writing library : x264 core 92 r1510 33d382a
Encoding settings : cabac=1 / ref=8 / deblock=1:-1:-1 / analyse=0x3:0x133 / me=umh / subme=7 / psy=1 / psy_rd=1.00:0.10 / mixed_ref=1 / me_range=16 / chroma_me=1 / trellis=2 / 8x8dct=1 / cqm=0 / deadzone=21,11 / fast_pskip=0 / chroma_qp_offset=-3 / threads=3 / sliced_threads=0 / nr=0 / decimate=1 / interlaced=0 / constrained_intra=0 / bframes=5 / b_pyramid=2 / b_adapt=2 / b_bias=0 / direct=3 / wpredb=1 / wpredp=2 / keyint=250 / keyint_min=25 / scenecut=40 / intra_refresh=0 / rc_lookahead=50 / rc=2pass / mbtree=1 / bitrate=2176 / ratetol=1.0 / qcomp=0.60 / qpmin=10 / qpmax=51 / qpstep=4 / cplxblur=20.0 / qblur=0.5 / ip_ratio=1.40 / aq=1:1.00
Default : Yes
Forced : No
Audio
ID : 2
Format : AC-3
Format/Info : Audio Coding 3
Mode extension : CM (complete main)
Codec ID : A_AC3
Duration : 1h 51mn
Bit rate mode : Constant
Bit rate : 448 Kbps
Channel(s) : 6 channels
Channel positions : Front: L C R, Side: L R, LFE
Sampling rate : 48.0 KHz
Bit depth : 16 bits
Compression mode : Lossy
Stream size : 357 MiB (17%)
Default : Yes
Forced : No

Скриншоты

Спасибо, за спасибо!



Последний раз редактировалось: Cheburashka (2012-03-08 12:48), всего редактировалось 1 раз

Создавать темы 17-Фев-2012 17:52

[Профиль]  [ЛС] 

Топик был перенесен из форума Российские кино в форум HD-AVC


Mixer City

Создавать темы 17-Фев-2012 18:12

 

buldozer

Стаж: 5 лет 6 месяцев

Сообщений: 79

Симпатии: 6

ок

Создавать темы 17-Фев-2012 20:14

[Профиль]  [ЛС] 

johongir.akaa

Стаж: 4 года 11 месяцев

Сообщений: 1

Раздавать будете ? ? ? ? ? ? ? ? ? bc bc bc

Создавать темы 22-Дек-2012 01:16

[Профиль]  [ЛС] 

zerocoolhz

Стаж: 4 года 9 месяцев

Сообщений: 6

раздача будет?

Создавать темы 05-Янв-2013 14:00

[Профиль]  [ЛС] 

erha

Стаж: 4 года 10 месяцев

Сообщений: 74

клёвый фильм, сиды дайте скорости!

Создавать темы 08-Фев-2013 10:14

[Профиль]  [ЛС] 

erha

Стаж: 4 года 10 месяцев

Сообщений: 74

сид, плиз чуток прибавь. Совсем немного осталось, 97%

Создавать темы 15-Фев-2013 18:26

[Профиль]  [ЛС] 

stopme

Стаж: 5 лет 6 месяцев

Сообщений: 7

Ребят почему ошибку выдаёт ?

Создавать темы 02-Июн-2013 15:14

[Профиль]  [ЛС] 

psihopatius

Стаж: 4 года 11 месяцев

Сообщений: 18

кто нить вообще раздаёт?

Создавать темы 06-Янв-2014 15:18

[Профиль]  [ЛС] 

berdievtim

Стаж: 3 года 6 месяцев

Сообщений: 1

доброго времени суток! Дайте раздачу, пожалуйста..

Создавать темы 25-Фев-2014 21:24

[Профиль]  [ЛС] 

artem2010

Стаж: 6 лет 9 месяцев

Сообщений: 89

Симпатии: 7

ТовариЩИ!!! Большая просьбААА !!! Встаньте на раздачу. )))) Крутой фильм!!! )))

Создавать темы 08-Окт-2014 23:25

[Профиль]  [ЛС] 

artem2010

Стаж: 6 лет 9 месяцев

Сообщений: 89

Симпатии: 7

Неужели никто не поможет?!... SOS!!! )))

Создавать темы 09-Окт-2014 21:08

[Профиль]  [ЛС] 

Rin-mandarin

Стаж: 6 лет 8 месяцев

Сообщений: 110

Симпатии: 51

Золото в студию!

Создавать темы 08-Апр-2017 14:50

[Профиль]  [ЛС] 

aziz132516

Стаж: 4 года 6 месяцев

Сообщений: 9

Cheburashka, дай скорость плиз заранее спасибо

Создавать темы 12-Апр-2017 10:56

[Профиль]  [ЛС] 
Показать сообщения:    
Ответить на тему

Текущее время: 22-Авг 21:53

Часовой пояс: UTC + 5



Вы не можете начинать темы
Вы не можете отвечать на сообщения
Вы не можете редактировать свои сообщения
Вы не можете удалять свои сообщения
Вы не можете голосовать в опросах
Вы не можете прикреплять файлы к сообщениям
Вы не можете скачивать файлы