Крикунов Е. - Пошаговое изучение радиоэлектроники с полного нуля [2009, RUS,Видео+HTML] [2009 г.]

Ответить на тему
 

NodirAbzi ®

Стаж: 6 лет 11 месяцев

Сообщений: 10

Симпатии: 4

Крикунов Е. - Пошаговое изучение радиоэлектроники с полного нуля [2009, RUS]
Год выпуска: 2009
Издатель: Евгений Крикунов
Разработчик: Евгений Крикунов
Язык: русский
Таблэтка: Не требуется
Системные требования: - MS Windows 95/NT/2000/XP/Vista/7
- Pentium II 500
- 64 МБ ОЗУ
- Разрешение экрана 800х600 с глубиной цвета 16 бит
- CD-ROM, звуковое устройство, мышь, клавиатура
- Установленный набор кодеков для просмотра видео в формате MPEG - 4
Описание: Представляем Вам видеокурс "Пошаговое изучение радиоэлектроники с полного нуля". После изучения диска Вы научитесь ремонтировать бытовые электроприборы, научитесь собирать различные электронные устройства и ремонтировать электропроводку.
Список уроков:
1) Введение
2) Материалы
3) Электричество
4) Необходимые инструменты
5) Учимся паять
6) Закон Ома
7) Мультиметр
8) Розетки, выключатели
9) Условные обозначения
10) Электропровода
11) Резисторы
12) Тиристоры
13) Конденсаторы
14) Диоды
15) Транзисторы
16) Микросхемы
17) Герконы
18) Трансформаторы
19) Электромагнитные реле
20) Катушки индуктивности
21) Динамики
22) Электродвигатель
23) Предохранители
24) Опыты
25) Лампы дневного света
26) Ремонтируем электроприборы
27) Принцип сборки электронных плат
28) Изготовление печатных плат
29) Сборка схем
30) Приборы-помощники
Доп. информация: Курс содержит в себе теоретическую часть в виде html-страниц и практические видео-уроки. Образ в формате *.ISO монтируется с помощью любой программы для работы с образами.

МедиаИнфо

Video
ID : 0
Format : MPEG-4 Visual
Format profile : [email protected]
Format settings, BVOP : No
Format settings, QPel : No
Format settings, GMC : No warppoints
Format settings, Matrix : Default (H.263)
Codec ID : XVID
Codec ID/Hint : XviD
Duration : 23mn 33s
Bit rate : 1 300 Kbps
Width : 640 pixels
Height : 480 pixels
Display aspect ratio : 4:3
Frame rate : 30.000 fps
Color space : YUV
Chroma subsampling : 4:2:0
Bit depth : 8 bits
Scan type : Progressive
Compression mode : Lossy
Bits/(Pixel*Frame) : 0.141
Stream size : 219 MiB (95%)
Writing library : XviD 1.2.1 (UTC 2008-12-04)
Audio
ID : 1
Format : MPEG Audio
Format version : Version 2.5
Format profile : Layer 3
Codec ID : 55
Codec ID/Hint : MP3
Duration : 23mn 33s
Bit rate mode : Constant
Bit rate : 64.0 Kbps
Channel(s) : 1 channel
Sampling rate : 8 000 Hz
Compression mode : Lossy
Stream size : 10.8 MiB (5%)
Alignment : Split accross interleaves
Interleave, duration : 144 ms (4.32 video frames)
Writing library : LAME3.98.2

Скрины

Меню диска

================================================
Теория

==================================================
Практика


=============================================

Создавать темы 18-Фев-2012 00:55

[Профиль]  [ЛС] 

kogagrig

Стаж: 6 лет 3 месяца

Сообщений: 119

Симпатии: 1

+1. класс!!!!! нужно любому, чтобы хоть что то уметь

Создавать темы 18-Фев-2012 09:34

[Профиль]  [ЛС] 

BAZINGA

Стаж: 5 лет 7 месяцев

Сообщений: 8

спасибо!! вот эта весчь!!! вспоминается Кавеш)

Создавать темы 08-Мар-2012 17:36

[Профиль]  [ЛС] 

Kill_billuzb

Стаж: 5 лет 7 месяцев

Сообщений: 29

Симпатии: 1

Не давно скачал с РуТрейкера,грех не поделится.
Респект !!!!

Создавать темы 25-Май-2012 20:36

[Профиль]  [ЛС] 

seedka

Стаж: 5 лет 6 месяцев

Сообщений: 45

Симпатии: 2

Не сказал бы что видеокурс (как и весь материал) расчитан на изучение его с нуля. Чтоб усвоить материал необходима как минимум школьная программа. Если честно я ожидал большего.

Создавать темы 19-Ноя-2012 19:30

[Профиль]  [ЛС] 

Kit

Стаж: 5 лет

Сообщений: 153

Симпатии: 9

Не сказал бы что видеокурс (как и весь материал) расчитан на изучение его с нуля. Чтоб усвоить материал необходима как минимум школьная программа. Если честно я ожидал большего.
угу... вот именно!.. а ещё кроме школьной программы требуются мозги!.. pc
Автору СПАСИБО за инфу!!! aa

Создавать темы 22-Фев-2013 15:13

[Профиль]  [ЛС] 

warden

Стаж: 5 лет

Сообщений: 16

да класная вешь я тоже не давно качал!

Создавать темы 29-Июн-2013 22:47

[Профиль]  [ЛС] 

MNjon

Стаж: 4 года 11 месяцев

Сообщений: 101

Симпатии: 5

Реально респект!! Уже собирался с внешки искать... БЛАГОДАРЮ!! ay az aa

Создавать темы 19-Июл-2015 16:12

[Профиль]  [ЛС] 

Боксер

Стаж: 2 года

Сообщений: 54

Симпатии: 34

Нужная вещь

Создавать темы 11-Сен-2015 15:06

[Профиль]  [ЛС] 

SkoroXod

Стаж: 1 год 11 месяцев

Сообщений: 99

Симпатии: 78

Хороший видеокурс для тех, кто только начинает осваивать радиоэлектронику. Толково разъяснённые уроки с практическими примерами помогут окунуться начинающему радиолюбителю в мир радиоэлектроники. Кроме видеоуроков на диске присутствует и текстовая информация, рекомендуемая к изучению наряду с видеоуроками. К тому же на диске присутствует множество примеров для самоделок, собрав которые Вы освоите курс ещё быстрее. Советую всем начинающим радиолюбителям и студентам техникумов по направлению "Радиотехника и электроника" и "Электронные Вычислительные Машины, Системы и Сети".

Создавать темы 04-Ноя-2015 14:21

[Профиль]  [ЛС] 
Показать сообщения:    
Ответить на тему

Текущее время: 21-Авг 17:08

Часовой пояс: UTC + 5



Вы не можете начинать темы
Вы не можете отвечать на сообщения
Вы не можете редактировать свои сообщения
Вы не можете удалять свои сообщения
Вы не можете голосовать в опросах
Вы не можете прикреплять файлы к сообщениям
Вы не можете скачивать файлы