Прожекторперисхилтон: выпуски 116, 117, 118, 119 [2012 г., Юмор, ТВ-шоу, SATRip]

Ответить на тему
 

xismoilov ®

Стаж: 5 лет 8 месяцев

Сообщений: 45

Симпатии: 15

Прожекторперисхилтон
Год выпуска: 2012
Страна: Россия
Жанр: Юмор, ТВ-шоу
Продолжительность: ~30-40 минут каждая серия
Перевод:Не требуется
Режиссер: Первый Канал
Ведущие: Иван Ургант, Гарик Мартиросян, Сергей Светлаков, Александр Цекало
Описание: Во время эфира программы Прожекторперисхилтон ее ведущие (Александр Цекало, Сергей Светлаков, Иван Ургант, Гарик Мортиросян) сообщают зрителям о самых главных новостях прошедшей недели, прочитанных ими в газетах за столом с чашечкой чая и печенюшками, в юмористическом ключе, подшучивая над происходящим, друг другом и приходящими к ним гостями.
Также в каждой передаче к ним приходит в гости музыканты, с которыми они вместе исполняют различные песни. Поскольку, Сергей Светлаков, судя по всему, на музыкальных инструментах не умеет (хотя кто его знает, можно быть, просто не хочет), то ему обычно достается бубен (в принципе, чем не музыкальный инструмент!).

Выпуск 116 / Дата эфира:03.02.2012/ Гость:---

Подробности:
- Возращение ППХ
- Президентская гонка в России
- ЦИК определился с кандидатами в президенты
- Предвыборные программы кандидатов
- Митинги 4 февраля
- Камень и Навальный
- Лучшие Твиттеры
- Ответ Валуеву в Твиттере

MediaInfo

Format : Flash Video
File size : 152 MiB
Duration : 31mn 28s
Overall bit rate : 677 Kbps
Tagged date : UTC 2012-02-10 17:44:45
Tagging application : GOM ENCODER (GFlv4Writer 1.0)
Video
Format : AVC
Format/Info : Advanced Video Codec
Format profile : [email protected]
Format settings, CABAC : Yes
Format settings, ReFrames : 1 frame
Muxing mode : Container [email protected]
Duration : 31mn 28s
Bit rate : 604 Kbps
Width : 704 pixels
Height : 448 pixels
Display aspect ratio : 1.571
Frame rate mode : Constant
Frame rate : 25.000 fps
Color space : YUV
Chroma subsampling : 4:2:0
Bit depth : 8 bits
Scan type : Progressive
Bits/(Pixel*Frame) : 0.077
Stream size : 136 MiB (89%)
Audio
Format : MPEG Audio
Format version : Version 1
Format profile : Layer 3
Mode : Joint stereo
Mode extension : MS Stereo
Duration : 31mn 28s
Bit rate mode : Constant
Bit rate : 64.0 Kbps
Channel(s) : 2 channels
Sampling rate : 44.1 KHz
Bit depth : 16 bits
Stream size : 14.4 MiB (9%)

Выпуск 117 / Дата эфира:10.02.2012/ Гость: Михаил Прохоров

- WEB-камеры на избирательных участках
- Мастер-класс от Владимира Чурова. Избирательная урна как источник вдохновения
- Аномальные холода в России и Европе
Приход Михаила Прохорова
- Прохоров на ППХ 2-й раз… Визит вне рамок избирательной кампании
- Обкатка сочинской олимпийской биатлонной трассы
- Сборная РФ по биатлону дисквалифицирована из-за Ульяны Кайшевой
- Закончен локаут в НБА
- Планы Прохорова на майские праздники
- Прохоров и рэпер Джей-Зи стали партнёрами по бизнесу. Совместная покупка баскетбольного клуба "Бруклин Нетс"
- Песня (Рэп с листа)
Уход Михаила Прохорова
- А не пригласить ли всех кандидатов в президенты гостями на передачу?
- Просьба в твиттер Медведеву

MediaInfo

Format : Flash Video
File size : 195 MiB
Duration : 40mn 24s
Overall bit rate : 676 Kbps
Tagged date : UTC 2012-02-03 19:17:04
Tagging application : GOM ENCODER (GFlv4Writer 1.0)
Video
Format : AVC
Format/Info : Advanced Video Codec
Format profile : [email protected]
Format settings, CABAC : Yes
Format settings, ReFrames : 1 frame
Muxing mode : Container [email protected]
Duration : 40mn 24s
Bit rate : 603 Kbps
Width : 704 pixels
Height : 448 pixels
Display aspect ratio : 1.571
Frame rate mode : Constant
Frame rate : 25.000 fps
Color space : YUV
Chroma subsampling : 4:2:0
Bit depth : 8 bits
Scan type : Progressive
Bits/(Pixel*Frame) : 0.076
Stream size : 174 MiB (89%)
Audio
Format : MPEG Audio
Format version : Version 1
Format profile : Layer 3
Mode : Joint stereo
Mode extension : MS Stereo
Duration : 40mn 24s
Bit rate mode : Constant
Bit rate : 64.0 Kbps
Channel(s) : 2 channels
Sampling rate : 44.1 KHz
Bit depth : 16 bits
Stream size : 18.5 MiB (9%)

Выпуск 118 / Дата эфира:17.02.2012/ Гость: Дэниел Редклифф (Гарри Поттер)

Подробности:
- День святого Валентина
- Полиция должна уметь работать в интернете
- Выезжающих из РФ посчитают по пальцам
- Автоматы с икрой в метро
- Трейлер к фильму "Женщина в чёрном"
- Ролик Светлакова к фильму
Приход Дэниэла Рэдклиффа
- О фильме Рэдклиффа
- Женщина с кофе
- Первая роль рэдклифа на сцене
- Как преуспеть в бизнесе ничего не делая
- Рассказ о крикете
- Игра с Цекало в крикет

MediaInfo

Format : Flash Video
File size : 142 MiB
Duration : 29mn 21s
Overall bit rate : 674 Kbps
Tagged date : UTC 2012-02-17 20:52:03
Tagging application : GOM ENCODER (GFlv4Writer 1.0)
Video
Format : AVC
Format/Info : Advanced Video Codec
Format profile : [email protected]
Format settings, CABAC : Yes
Format settings, ReFrames : 1 frame
Muxing mode : Container [email protected]
Duration : 29mn 21s
Bit rate : 605 Kbps
Width : 704 pixels
Height : 448 pixels
Display aspect ratio : 1.571
Frame rate mode : Constant
Frame rate : 25.000 fps
Color space : YUV
Chroma subsampling : 4:2:0
Bit depth : 8 bits
Scan type : Progressive
Bits/(Pixel*Frame) : 0.077
Stream size : 127 MiB (90%)
Audio
Format : MPEG Audio
Format version : Version 1
Format profile : Layer 3
Mode : Joint stereo
Mode extension : MS Stereo
Duration : 29mn 21s
Bit rate mode : Constant
Bit rate : 64.0 Kbps
Channel(s) : 2 channels
Sampling rate : 44.1 KHz
Bit depth : 16 bits
Stream size : 13.4 MiB (9%)

Выпуск 119 / Дата эфира: 24.02.2012 / Гость: Владимир Жириновский

Подробности:
- "Победа" на матче ЦСКА - Реал Мадрид
- С Днём защитника отечества
- Маслечный разгуляй на митингах
- Ну очень жирный Гус
- Cтросc-Кан снова за решёткой
- План оргии
- 23 февраля
Приход Владимира Жириновского
- Животные Жириновского
- Отмена новогодних каникул
- Учёные предсказали два апокалипсиса
- Жириновский vs ППХ
Уход Владимира Жириновского

MediaInfo

Format : Flash Video
File size : 142 MiB
Duration : 29mn 21s
Overall bit rate : 674 Kbps
Tagged date : UTC 2012-02-17 20:52:03
Tagging application : GOM ENCODER (GFlv4Writer 1.0)
Video
Format : AVC
Format/Info : Advanced Video Codec
Format profile : [email protected]
Format settings, CABAC : Yes
Format settings, ReFrames : 1 frame
Muxing mode : Container [email protected]
Duration : 29mn 21s
Bit rate : 605 Kbps
Width : 704 pixels
Height : 448 pixels
Display aspect ratio : 1.571
Frame rate mode : Constant
Frame rate : 25.000 fps
Color space : YUV
Chroma subsampling : 4:2:0
Bit depth : 8 bits
Scan type : Progressive
Bits/(Pixel*Frame) : 0.077
Stream size : 127 MiB (90%)
Audio
Format : MPEG Audio
Format version : Version 1
Format profile : Layer 3
Mode : Joint stereo
Mode extension : MS Stereo
Duration : 29mn 21s
Bit rate mode : Constant
Bit rate : 64.0 Kbps
Channel(s) : 2 channels
Sampling rate : 44.1 KHz
Bit depth : 16 bits
Stream size : 13.4 MiB (9%)
Качество: SATRip
Формат: FLV
Видео кодек: H264
Аудио кодек: AC3
Видео: H264, 704x448, 25fps, ~600kbps
Аудио: MP3, 44100Hz, 2ch (stereo), 64kbps

Скриншоты









Последний раз редактировалось: xismoilov (2012-03-06 15:12), всего редактировалось 7 раз(а)

Создавать темы 19-Фев-2012 19:14

[Профиль]  [ЛС] 

Pendalf

Стаж: 6 лет 4 месяца

Сообщений: 416

Симпатии: 34

xismoilov, отчет MediaInfo по всем трем сериям приведите пожалуйста

Создавать темы 19-Фев-2012 20:37

[Профиль]  [ЛС] 

xismoilov ®

Стаж: 5 лет 8 месяцев

Сообщений: 45

Симпатии: 15

Pendalf, Вот гатова!
Под спроллером Выпуск 116 / Дата эфира:03.02.2012/ Гость:---
Выпуск 117 / Дата эфира:10.02.2012/ Гость: Михаил Прохоров
Выпуск 118 / Дата эфира:17.02.2012/ Гость: Дэниел Редклифф (Гарри Поттер)

Создавать темы 19-Фев-2012 21:03

[Профиль]  [ЛС] 

Бонус

Стаж: 6 лет 11 месяцев

Сообщений: 90

Симпатии: 1

С жириновским добавьте плиз, говорят, что вообще ппц убойно получилось

Создавать темы 26-Фев-2012 09:28

[Профиль]  [ЛС] 

xismoilov ®

Стаж: 5 лет 8 месяцев

Сообщений: 45

Симпатии: 15

С жириновским добавьте плиз, говорят, что вообще ппц убойно получилось
Ок все будет завтра! Ок?

Создавать темы 02-Мар-2012 22:28

[Профиль]  [ЛС] 

xismoilov ®

Стаж: 5 лет 8 месяцев

Сообщений: 45

Симпатии: 15

Обновите торрент файл,добавлена 119 серия

Создавать темы 05-Мар-2012 14:55

[Профиль]  [ЛС] 

Бонус

Стаж: 6 лет 11 месяцев

Сообщений: 90

Симпатии: 1

Так вы забыли добавить скачку))

Создавать темы 06-Мар-2012 11:10

[Профиль]  [ЛС] 

xismoilov ®

Стаж: 5 лет 8 месяцев

Сообщений: 45

Симпатии: 15

Так вы забыли добавить скачку))
Ох Сорри! Приятного просмотр!

Создавать темы 06-Мар-2012 14:52

[Профиль]  [ЛС] 

mchls

Стаж: 6 лет 9 месяцев

Сообщений: 9

Даешь 120, 121 выпуск!

Создавать темы 09-Мар-2012 12:40

[Профиль]  [ЛС] 
Показать сообщения:    
Ответить на тему

Текущее время: 23-Окт 11:22

Часовой пояс: UTC + 5



Вы не можете начинать темы
Вы не можете отвечать на сообщения
Вы не можете редактировать свои сообщения
Вы не можете удалять свои сообщения
Вы не можете голосовать в опросах
Вы не можете прикреплять файлы к сообщениям
Вы не можете скачивать файлы