Константин: Повелитель тьмы / Constantine (Фрэнсис Лоуренс) [2005 г., Мистический триллер, HDRip-720p]

Страницы :  1, 2, 3  След.

Ответить на тему
 

Kubaev_Muhiddin ®

Стаж: 6 лет 7 месяцев

Сообщений: 104

Симпатии: 34

Константин: Повелитель тьмы / Constantine
Год выпуска: 2005
Страна: Германия, США, Австралия
Жанр: Мистический триллер
Продолжительность: 01:55:46
Перевод: Профессиональный (полное дублирование)
Режиссер: Фрэнсис Лоуренс
В ролях: Киану Ривз, Рэйчел Вайс, Шиа ЛаБеуф, Джимон Хонсу, Макс Бейкер, Прюитт Тейлор Винс и др.
Описание: В современном Лос-Анджелесе живет неутомимый борец с нечистью, экзорцист и медиум Джон Константин. Константин родился с даром видения потустороннего мира, он видит ангелов и демонов, которые спускаются в мир, чтобы вести борьбу за человеческие души. Не выдержав своего опасного дара, в юности он совершил самоубийство, но был реанимирован. Стремясь избежать ада, который полагается ему за самоубийство, он принимает сторону Света и в меру своих сил борется с демонами, которые проникают в этот мир.
Джон Константин — мизантроп, грубиян и заядлый курильщик. Последнее привело его к терминальной стадии рака легких, от которого он должен умереть в ближайшее время. Всё больше разочаровываясь в окружающем мире, будучи не в ладу с миром потусторонним, понимая безрезультатность своих действий и чувствуя близость Ада, он начинает спиваться. В этот момент в его жизни появляется Анджела, детектив полиции, испытавшая в своей жизни тяжёлую утрату и пытающаяся найти виновников убийства своей сестры-близнеца Изабель.
Бюджет: 100 млн. $
Сборы: 230 млн. $
Качество: HDRip-720p
Формат: AVI
Видео кодек: XviD
Аудио кодек: AC3
Видео: 1280х720, 25.000 fps, 4 723 Kbps
Аудио: 6 channels, 48.0 KHz, 448 Kbps

Медиа инфо

Format : AVI
Format/Info : Audio Video Interleave
Format profile : OpenDML
File size : 4.19 GiB
Duration : 1h 55mn
Overall bit rate : 5 178 Kbps
Writing application : VirtualDubMod 1.5.10.1 (build 2366/release)
Writing library : VirtualDubMod build 2366/release
Video
ID : 0
Format : MPEG-4 Visual
Format profile : Advanced [email protected]
Format settings, BVOP : 2
Format settings, QPel : No
Format settings, GMC : No warppoints
Format settings, Matrix : Default (MPEG)
Muxing mode : Packed bitstream
Codec ID : XVID
Codec ID/Hint : XviD
Duration : 1h 55mn
Bit rate : 4 723 Kbps
Width : 1 280 pixels
Height : 720 pixels
Display aspect ratio : 16:9
Frame rate : 25.000 fps
Original frame rate : 23.976 fps
Color space : YUV
Chroma subsampling : 4:2:0
Bit depth : 8 bits
Scan type : Progressive
Compression mode : Lossy
Bits/(Pixel*Frame) : 0.205
Stream size : 3.82 GiB (91%)
Writing library : XviD 1.0.3 (UTC 2004-12-20)
Audio
ID : 1
Format : AC-3
Format/Info : Audio Coding 3
Mode extension : CM (complete main)
Codec ID : 2000
Duration : 1h 55mn
Bit rate mode : Constant
Bit rate : 448 Kbps
Channel(s) : 6 channels
Channel positions : Front: L C R, Side: L R, LFE
Sampling rate : 48.0 KHz
Bit depth : 16 bits
Compression mode : Lossy
Delay relative to video : 16ms
Stream size : 370 MiB (9%)
Alignment : Split accross interleaves
Interleave, duration : 64 ms (1.60 video frames)
Interleave, preload duration : 500 ms

Скриншоты






Последний раз редактировалось: Kubaev_Muhiddin (2013-08-31 08:42), всего редактировалось 7 раз(а)

Создавать темы 19-Фев-2012 23:01

[Профиль]  [ЛС] 

vitall

Стаж: 6 лет 4 месяца

Сообщений: 25

скриншоты несоответствуют заявленным размерам.
тех. данные неполные.

Создавать темы 19-Фев-2012 23:04

[Профиль]  [ЛС] 

Mixer City

Стаж: 6 лет 8 месяцев

Сообщений: 754

Симпатии: 63

Kubaev_Muhiddin, описания слишком много, главное: разрешение скринов не совпадает с указанным и нет битрейта видео.

Создавать темы 20-Фев-2012 00:28

[Профиль]  [ЛС] 

Дмитриев

Стаж: 7 лет 3 месяца

Сообщений: 139

Симпатии: 12

Kubaev_Muhiddin,
Братан Скриншоты не те ты что та ошибся ИЗМЕНИ

Вот Инфо

Format : AVI
Format/Info : Audio Video Interleave
Format profile : OpenDML
File size : 4.19 GiB
Duration : 1h 55mn
Overall bit rate : 5 178 Kbps
Writing application : VirtualDubMod 1.5.10.1 (build 2366/release)
Writing library : VirtualDubMod build 2366/release
Video
ID : 0
Format : MPEG-4 Visual
Format profile : Advanced [email protected]
Format settings, BVOP : 2
Format settings, QPel : No
Format settings, GMC : No warppoints
Format settings, Matrix : Default (MPEG)
Muxing mode : Packed bitstream
Codec ID : XVID
Codec ID/Hint : XviD
Duration : 1h 55mn
Bit rate : 4 723 Kbps
Width : 1 280 pixels
Height : 720 pixels
Display aspect ratio : 16:9
Frame rate : 25.000 fps
Original frame rate : 23.976 fps
Color space : YUV
Chroma subsampling : 4:2:0
Bit depth : 8 bits
Scan type : Progressive
Compression mode : Lossy
Bits/(Pixel*Frame) : 0.205
Stream size : 3.82 GiB (91%)
Writing library : XviD 1.0.3 (UTC 2004-12-20)
Audio
ID : 1
Format : AC-3
Format/Info : Audio Coding 3
Mode extension : CM (complete main)
Codec ID : 2000
Duration : 1h 55mn
Bit rate mode : Constant
Bit rate : 448 Kbps
Channel(s) : 6 channels
Channel positions : Front: L C R, Side: L R, LFE
Sampling rate : 48.0 KHz
Bit depth : 16 bits
Compression mode : Lossy
Delay relative to video : 16ms
Stream size : 370 MiB (9%)
Alignment : Split accross interleaves
Interleave, duration : 64 ms (1.60 video frames)
Interleave, preload duration : 500 ms

Вот Скриншоты




Создавать темы 20-Фев-2012 01:19

[Профиль]  [ЛС] 

akhan

Стаж: 5 лет 8 месяцев

Сообщений: 19

Симпатии: 5

Ну ты блин звездец, дал полное описание фильма, теперь и смотреть не надо, и так все уже рассказал......

Создавать темы 20-Фев-2012 03:26

[Профиль]  [ЛС] 

dimanjon

Стаж: 5 лет 8 месяцев

Сообщений: 107

Симпатии: 9

скриншоты несоответствуют заявленным размерам.
тех. данные неполные.
тех данные непольные?
"Качество: DVDRip, Формат: AVI, Видео кодек: XviD, Видео: 1280х720" написал же человек достаточно, что тут еще непонятного?
скриншоты несоответствуют заявленным размерам?
вроде и у тебя тоже вот здесь :http://tas-ix.net/viewtopic.php?t=41003
скрины несоответстует заявленным размерам.
а вот этого: http://tas-ix.net/viewtopic.php?t=34546 вообще рисунков нет.
здесь тоже не совпадает: http://tas-ix.net/viewtopic.php?t=27401
ненадо критиковать! надо помогать!
у меня одна просьба модерам. если человек сделал чтото не так. помогите исправить ему дав ему точную ссылку как иправить ошибку, а вы просто указываете на ошибку и все.

Создавать темы 20-Фев-2012 03:54

[Профиль]  [ЛС] 

kafmar

Стаж: 6 лет 7 месяцев

Сообщений: 28

да 90% людей видели этот фильм) качаю только чтоб пересмотреть)

Создавать темы 20-Фев-2012 04:04

[Профиль]  [ЛС] 

Kubaev_Muhiddin ®

Стаж: 6 лет 7 месяцев

Сообщений: 104

Симпатии: 34

Хорошо сделаю как хотите и спасибо за поддержку dimanjon

Создавать темы 20-Фев-2012 08:05

[Профиль]  [ЛС] 

Kubaev_Muhiddin ®

Стаж: 6 лет 7 месяцев

Сообщений: 104

Симпатии: 34

Большое спасибо Дмитриев

Создавать темы 20-Фев-2012 08:19

[Профиль]  [ЛС] 

victor0778

Стаж: 6 лет 7 месяцев

Сообщений: 1670

Симпатии: 142

Kubaev_Muhiddin, здесь не может быть Качество: DVDRip

Создавать темы 20-Фев-2012 08:23

[Профиль]  [ЛС] 

knyaz31337

Стаж: 6 лет 4 месяца

Сообщений: 396

Симпатии: 20

kafmar, согласен, но фильм не реально крутой! В этом году вторая часть выходит.

Создавать темы 20-Фев-2012 08:54

[Профиль]  [ЛС] 

genw

Стаж: 6 лет 8 месяцев

Сообщений: 59

хорошый фильм но я так думаю его месяц будем кочать

Создавать темы 20-Фев-2012 09:03

[Профиль]  [ЛС] 

genw

Стаж: 6 лет 8 месяцев

Сообщений: 59

а по меньше размером есть у кого этот фильм

Создавать темы 20-Фев-2012 10:05

[Профиль]  [ЛС] 

dimanjon

Стаж: 5 лет 8 месяцев

Сообщений: 107

Симпатии: 9

Kubaev_Muhiddin, Да незачто, всегда пожалуйста.

Создавать темы 20-Фев-2012 15:53

[Профиль]  [ЛС] 

Mixer City

Стаж: 6 лет 8 месяцев

Сообщений: 754

Симпатии: 63

dimanjon, для того, чтобы делать всё так, создавая тему, нужно читать все инструкции, выдаваемые при создании новой темы, но все это игнорируют, оформляют неверно, а потом многие ещё и утверждают, что всё верно сделали. Читать надо, не лениться.-Я же вот это: http://tas-ix.net/viewtopic.php?t=41311, сделал для кого то, зайдя в раздел FAQ, можно найти и почитать, прежде всего.

Создавать темы 20-Фев-2012 20:03

[Профиль]  [ЛС] 
Показать сообщения:    
Ответить на тему

Текущее время: 21-Сен 02:54

Часовой пояс: UTC + 5



Вы не можете начинать темы
Вы не можете отвечать на сообщения
Вы не можете редактировать свои сообщения
Вы не можете удалять свои сообщения
Вы не можете голосовать в опросах
Вы не можете прикреплять файлы к сообщениям
Вы не можете скачивать файлы