Ромовый дневник / The Rum Diary (Брюс Робинсон) [2011 г., драма, комедия, приключения, BDRip]

Ответить на тему
 

DMiTRY ®

Стаж: 6 лет 4 месяца

Сообщений: 649

Симпатии: 28

Ромовый дневник / The Rum Diary
Год выпуска: 2011
Страна: США
Жанр: драма, комедия, приключения
Продолжительность: 01:59:59
Перевод: Профессиональный (полное дублирование)
Режиссер: Брюс Робинсон
В ролях: Джонни Депп, Майкл Рисполи, Аарон Экхарт, Эмбер Хёрд, Джованни Рибизи, Ричард Дженкинс, Амори Ноласко, Маршалл Белл, Билл Смитрович, Джулиан Холлоуэй
Описание: 1960-й год. Талантливый журналист Пол Кэмп, которого достала лживая глянцевая жизнь Нью-Йорка, бросает работу в престижном издании и уезжает в Пуэрто-Рико, где ром льется рекой, где дешево все — машины, яхты, девушки, здесь саму жизнь продают за копейки…
Качество: BDRip
Формат: MKV
Видео кодек: Другой MPEG4
Аудио кодек: AC3
Видео: 1280x692, 5018 Кбит/с, 23.976 кадр/с, MPEG-4 AVC
Аудио #1: AC3, 6 каналов, 448 Кбит/c, 48000 КГц I Русский (дублированный, лицензия Blu-ray)
Аудио #2: AC3, 2 канала, 192 Кбит/c, 48000 КГц I Английский (оригинал)

Скриншоты






media info

Format : Matroska
Format version : Version 1
File size : 4.74 GiB
Duration : 1h 59mn
Overall bit rate : 5 659 Kbps
Movie name : Ромовый дневник / The Rum Diary (2011) BDRip 720p - firebit.org
Encoded date : UTC 2012-02-08 19:29:56
Writing application : mkvmerge v2.3.0 ('Freak U') built on Sep 8 2008 18:32:16
Writing library : libebml v0.7.7 + libmatroska v0.8.1
Video
ID : 1
Format : AVC
Format/Info : Advanced Video Codec
Format profile : [email protected]
Format settings, CABAC : Yes
Format settings, ReFrames : 8 frames
Codec ID : V_MPEG4/ISO/AVC
Duration : 1h 59mn
Bit rate : 5 018 Kbps
Width : 1 280 pixels
Height : 692 pixels
Display aspect ratio : 1.850
Frame rate : 23.976 fps
Color space : YUV
Chroma subsampling : 4:2:0
Bit depth : 8 bits
Scan type : Progressive
Bits/(Pixel*Frame) : 0.236
Stream size : 4.11 GiB (87%)
Title : http://firebit.org
Writing library : x264 core 120 r2146 bcd41db
Encoding settings : cabac=1 / ref=8 / deblock=1:-3:-3 / analyse=0x3:0x113 / me=umh / subme=11 / psy=1 / psy_rd=0.90:0.00 / mixed_ref=1 / me_range=32 / chroma_me=1 / trellis=2 / 8x8dct=1 / cqm=0 / deadzone=21,11 / fast_pskip=0 / chroma_qp_offset=-2 / threads=24 / sliced_threads=0 / nr=0 / decimate=1 / interlaced=0 / bluray_compat=0 / constrained_intra=0 / bframes=5 / b_pyramid=2 / b_adapt=2 / b_bias=0 / direct=3 / weightb=1 / open_gop=0 / weightp=2 / keyint=360 / keyint_min=1 / scenecut=40 / intra_refresh=0 / rc_lookahead=60 / rc=2pass / mbtree=1 / bitrate=5018 / ratetol=1.0 / qcomp=0.60 / qpmin=0 / qpmax=69 / qpstep=4 / cplxblur=20.0 / qblur=0.5 / vbv_maxrate=40000 / vbv_bufsize=30000 / nal_hrd=none / ip_ratio=1.40 / aq=1:0.80
Language : English
Default : Yes
Forced : No
Audio #1
ID : 2
Format : AC-3
Format/Info : Audio Coding 3
Mode extension : CM (complete main)
Codec ID : A_AC3
Duration : 1h 59mn
Bit rate mode : Constant
Bit rate : 448 Kbps
Channel(s) : 6 channels
Channel positions : Front: L C R, Side: L R, LFE
Sampling rate : 48.0 KHz
Bit depth : 16 bits
Compression mode : Lossy
Stream size : 384 MiB (8%)
Title : http://firebit.org
Language : Russian
Default : Yes
Forced : No
Audio #2
ID : 3
Format : AC-3
Format/Info : Audio Coding 3
Mode extension : CM (complete main)
Codec ID : A_AC3
Duration : 1h 59mn
Bit rate mode : Constant
Bit rate : 192 Kbps
Channel(s) : 2 channels
Channel positions : Front: L R
Sampling rate : 48.0 KHz
Bit depth : 16 bits
Compression mode : Lossy
Stream size : 165 MiB (3%)
Title : http://firebit.org
Language : English
Default : No
Forced : No
Text #1
ID : 4
Format : UTF-8
Codec ID : S_TEXT/UTF8
Codec ID/Info : UTF-8 Plain Text
Title : http://firebit.org
Language : English
Default : Yes
Forced : No
Text #2
ID : 5
Format : UTF-8
Codec ID : S_TEXT/UTF8
Codec ID/Info : UTF-8 Plain Text
Title : http://firebit.org
Language : Russian
Default : No
Forced : No
Text #3
ID : 6
Format : UTF-8
Codec ID : S_TEXT/UTF8
Codec ID/Info : UTF-8 Plain Text
Title : http://firebit.org
Language : English
Default : No
Forced : No
Text #4
ID : 7
Format : UTF-8
Codec ID : S_TEXT/UTF8
Codec ID/Info : UTF-8 Plain Text
Title : http://firebit.org
Language : English
Default : No
Forced : No


Последний раз редактировалось: DMiTRY (2012-11-20 18:43), всего редактировалось 2 раз(а)

Создавать темы 20-Фев-2012 16:43

[Профиль]  [ЛС] 

DMiTRY ®

Стаж: 6 лет 4 месяца

Сообщений: 649

Симпатии: 28

проверьте релиз,3 часа прошло уже и не забываем говорить СПАСИБО:) раздаю как всегда с 8 утра до 12 ночи.

Создавать темы 20-Фев-2012 20:17

[Профиль]  [ЛС] 

Pendalf

Стаж: 6 лет 3 месяца

Сообщений: 416

Симпатии: 34

DMiTRY, залейте скриншоты в png и добавьте лог кодирования - посмотрим, достаточно ли данного битрейта, либо в HD-AVC рип перенесется, т.к.
Минимальный средний битрейт для видеопотока рипов:
720p с AR 1.85, 1.78 — 5200 kbps
а у вас 5018 Кбит/с

Создавать темы 20-Фев-2012 20:56

[Профиль]  [ЛС] 

DMiTRY ®

Стаж: 6 лет 4 месяца

Сообщений: 649

Симпатии: 28

добавил скрины в формате PNG

Создавать темы 20-Фев-2012 22:58

[Профиль]  [ЛС] 

bubldin 2

Стаж: 5 лет 7 месяцев

Сообщений: 14

Скачан: 1 раз
Полного источника не было: Никогда
Мистика :)

Создавать темы 27-Мар-2012 02:54

[Профиль]  [ЛС] 

DMiTRY ®

Стаж: 6 лет 4 месяца

Сообщений: 649

Симпатии: 28

Скачан: 1 раз
Полного источника не было: Никогда
Мистика :)
Раздача была,но я раздал всего то 5гб,для одного скачавшего и думал скачавший будет поддерживать раздачу,но он этого не сделал...

Создавать темы 27-Мар-2012 20:36

[Профиль]  [ЛС] 

frostyk

Стаж: 6 лет 2 месяца

Сообщений: 27

Симпатии: 1

а можно кого-нибудь на раздачу поставить?

Создавать темы 17-Май-2012 22:58

[Профиль]  [ЛС] 

DMiTRY ®

Стаж: 6 лет 4 месяца

Сообщений: 649

Симпатии: 28

а можно кого-нибудь на раздачу поставить?
можно,пока попросите скачавших... в течении нескольких дней постараюсь все раздачи свои восстановить... а пока просите скачавших.

Создавать темы 17-Май-2012 23:34

[Профиль]  [ЛС] 

DMiTRY ®

Стаж: 6 лет 4 месяца

Сообщений: 649

Симпатии: 28

обновил раздачу.

Создавать темы 20-Ноя-2012 18:44

[Профиль]  [ЛС] 

DMiTRY ®

Стаж: 6 лет 4 месяца

Сообщений: 649

Симпатии: 28

сегодня утром раздача по полной.

Создавать темы 21-Ноя-2012 00:19

[Профиль]  [ЛС] 
Показать сообщения:    
Ответить на тему

Текущее время: 19-Сен 22:13

Часовой пояс: UTC + 5



Вы не можете начинать темы
Вы не можете отвечать на сообщения
Вы не можете редактировать свои сообщения
Вы не можете удалять свои сообщения
Вы не можете голосовать в опросах
Вы не можете прикреплять файлы к сообщениям
Вы не можете скачивать файлы