Cтраница 8 / Page Eight (Дэвид Хэа) [2011г., триллер, драма, мелодрама, детектив, HDRip]

Ответить на тему
 

assi-2009 ®

Стаж: 5 лет 10 месяцев

Сообщений: 6

Cтраница 8 / Page Eight
Год выпуска: 2011
Жанр: триллер, драма, мелодрама, детектив
Режиссер: Дэвид Хэа
В ролях: Билл Найи, Рейчел Вайс, Рэйф Файнс, Майкл Гэмбон, Фелисити Джонс, Юэн Бремнер, Джуди Дэвис, Том Хьюз, Холли Аирд, Саския Ривз
О фильме:
Неожиданная встреча на лестничной клетке с приятной молодой Ненси Пирпен кажется агенту секретной службы Джонни Уоррикеру не случайной. Однако больше опытного секретного агента беспокоит другая более серьезность случайность, лучший друг и начальник Бенедикт Барон внезапно умер, прежде оставив тоненькую, но опасную папку с секретной информацией. Общаясь с завистниками, бывшими женами и дочерью, агент Уоррикер собирает информацию об угрожающем правительству документе и все больше увлекается очаровательной соседкой.
Выпущено: Великобритания
Продолжительность: 01:38:34
Перевод: Любительский (одноголосный)

Качество: HDRip
Формат: AVI
Video: Xvid 720x304 25.00fps Bit rate 1 788 Kbps
Audio: Dolby AC3 48000Hz stereo 192kbps
Размер: 1.37 GB
D:\Torrent\Page.Eight.2011.HDRi.vse-darim.ru.avi
General
Complete name : D:\Torrent\Page.Eight.2011.HDRi.vse-darim.ru.avi
Format : AVI
Format/Info : Audio Video Interleave
File size : 1.37 GiB
Duration : 1h 38mn
Overall bit rate : 1 990 Kbps
Writing application : VirtualDubMod 1.5.10.2 (build 2542/release)
Writing library : VirtualDubMod build 2542/release
Video #0
ID : 0
Format : MPEG-4 Visual
Format profile : Advanced [email protected]
Format settings, BVOP : 2
Format settings, QPel : No
Format settings, GMC : No warppoints
Format settings, Matrix : Default (H.263)
Muxing mode : Packed bitstream
Codec ID : XVID
Codec ID/Hint : XviD
Duration : 1h 38mn
Bit rate : 1 788 Kbps
Width : 720 pixels
Height : 304 pixels
Display aspect ratio : 2.35:1
Frame rate : 25.000 fps
Color space : YUV
Chroma subsampling : 4:2:0
Bit depth : 8 bits
Scan type : Progressive
Compression mode : Lossy
Bits/(Pixel*Frame) : 0.327
Stream size : 1.23 GiB (90%)
Writing library : XviD 64
Audio #1
ID : 1
Format : AC-3
Format/Info : Audio Coding 3
Mode extension : CM (complete main)
Codec ID : 2000
Duration : 1h 38mn
Bit rate mode : Constant
Bit rate : 192 Kbps
Channel(s) : 2 channels
Channel positions : Front: L R
Sampling rate : 48.0 KHz
Bit depth : 16 bits
Compression mode : Lossy
Stream size : 135 MiB (10%)
Alignment : Aligned on interleaves
Interleave, duration : 40 ms (1.00 video frame)
Interleave, preload duration : 512 ms

Скриншоты





Последний раз редактировалось: assi-2009 (2012-02-21 12:48), всего редактировалось 1 раз

Создавать темы 21-Фев-2012 09:03

[Профиль]  [ЛС] 

victor0778

Стаж: 6 лет 9 месяцев

Сообщений: 1670

Симпатии: 142

битрейт видео укажи

Создавать темы 21-Фев-2012 12:17

[Профиль]  [ЛС] 

assi-2009 ®

Стаж: 5 лет 10 месяцев

Сообщений: 6

смотри victor0778,

Создавать темы 21-Фев-2012 12:49

[Профиль]  [ЛС] 
Показать сообщения:    
Ответить на тему

Текущее время: 18-Ноя 15:21

Часовой пояс: UTC + 5



Вы не можете начинать темы
Вы не можете отвечать на сообщения
Вы не можете редактировать свои сообщения
Вы не можете удалять свои сообщения
Вы не можете голосовать в опросах
Вы не можете прикреплять файлы к сообщениям
Вы не можете скачивать файлы