Королевство / The Kingdom (Питер Берг / Peter Berg) [2007, США, Германия, боевик, драма, триллер, BDRip 720p] DUB+AVO (Живов)+AVO (Немахов)+Original ENG+SUB (RUS, ENG)

Ответить на тему
 

xassi ®

Стаж: 6 лет 9 месяцев

Сообщений: 81

Королевство / The Kingdom
Год выхода: 2007
Жанр: боевик, драма, триллер
Страна: США, Германия
Продолжительность: 01:49:45
Перевод #1: Профессиональный (полное дублирование)
Перевод #2: Авторский (одноголосый закадровый) [Ю.Живов]
Перевод #3: Авторский (одноголосый закадровый) [Ю.Немахов]
Субтитры: есть (2 вида)-Режиссер: Питер Берг / Peter Berg
В ролях: Джейми Фокс, Крис Купер, Дженнифер Гарнер, Джейсон Бейтман, Ашраф Бархом, Али Сулимэн, Джереми Пивен, Ричард Дженкинс, Тим МакГроу, Кайл Чандлер
О фильме: Драматический боевик на острую нынче тему конфликта на Ближнем Востоке. В этот трудный во всех отношениях регион отправляется команда из четверых профессиональных агентов ФБР, чтобы расследовать теракт, произошедший на американском объекте в этой стране, и найти некого Абу Хамза, предположительно главу террористов.
Сразу становится ясно, что миссия будет не из легких. Однако американцы находят общий язык с представителем местной полиции, который будет по возможности оказывать команде помощь в установлении справедливости в этой чужой им стране.-Качество: BDRip 720p
Формат: MKV
Видео кодек: x264
Аудио кодек: AC3, DTS
Видео: 1280x544 (2.35:1) OAR, 23.976 fps, [email protected], crf, ~4202 kbps avg
Аудио #1: AC3, 48 KHz, 3/2 (L,C,R,l,r) + LFE ch, ~448 kbps |Дубляж|
Аудио #2: AC3, 48 KHz, 3/2 (L,C,R,l,r) + LFE ch, ~384 kbps |Живов|
Аудио #3: DTS, 48 KHz, 3/2 (L,C,R,l,r) + LFE ch, ~1536 kbps |Немахов|
Аудио #4: DTS, 48 KHz, 3/2 (L,C,R,l,r) + LFE ch, ~1536 kbps |English|
Субтитры: Русские [FULL], Английские [FULL]

Скриншоты



MediaInfo

Format : Matroska
Format version : Version 2
File size : 6.33 GiB
Duration : 1h 50mn
Overall bit rate : 8 217 Kbps
Movie name : 720p | HQCLUB | DaniLch
Encoded date : UTC 2010-11-09 03:19:58
Writing application : mkvmerge v3.3.0 ('Language') built on Mar 24 2010 14:59:24
Writing library : libebml v0.8.0 + libmatroska v0.9.0
Video
ID : 1
Format : AVC
Format/Info : Advanced Video Codec
Format profile : [email protected]
Format settings, CABAC : Yes
Format settings, ReFrames : 9 frames
Codec ID : V_MPEG4/ISO/AVC
Duration : 1h 50mn
Bit rate : 4 202 Kbps
Width : 1 280 pixels
Height : 544 pixels
Display aspect ratio : 2.35:1
Frame rate : 23.976 fps
Color space : YUV
Chroma subsampling : 4:2:0
Bit depth : 8 bits
Scan type : Progressive
Bits/(Pixel*Frame) : 0.252
Stream size : 3.24 GiB (51%)
Title : Королевство / The Kingdom (2007)
Writing library : x264 core 98 r1649 20cbe10
Encoding settings : cabac=1 / ref=9 / deblock=1:-3:-3 / analyse=0x3:0x133 / me=umh / subme=10 / psy=1 / psy_rd=0.90:0.15 / mixed_ref=1 / me_range=24 / chroma_me=1 / trellis=2 / 8x8dct=1 / cqm=0 / deadzone=21,11 / fast_pskip=0 / chroma_qp_offset=-3 / threads=6 / sliced_threads=0 / nr=0 / decimate=1 / interlaced=0 / constrained_intra=0 / bframes=12 / b_pyramid=2 / b_adapt=2 / b_bias=0 / direct=1 / weightb=1 / weightp=2 / keyint=250 / keyint_min=25 / scenecut=40 / intra_refresh=0 / rc_lookahead=40 / rc=crf / mbtree=1 / crf=18.0 / qcomp=0.60 / qpmin=10 / qpmax=51 / qpstep=4 / vbv_maxrate=16500 / vbv_bufsize=16000 / crf_max=0.0 / ip_ratio=1.40 / aq=1:0.70 / nal_hrd=none
Language : English
Default : Yes
Forced : No
Audio #1
ID : 2
Format : AC-3
Format/Info : Audio Coding 3
Mode extension : CM (complete main)
Codec ID : A_AC3
Duration : 1h 50mn
Bit rate mode : Constant
Bit rate : 448 Kbps
Channel(s) : 6 channels
Channel positions : Front: L C R, Side: L R, LFE
Sampling rate : 48.0 KHz
Bit depth : 16 bits
Compression mode : Lossy
Stream size : 354 MiB (5%)
Title : AC3 5.1 @ 448 kbps - Дубляж
Language : Russian
Default : Yes
Forced : No
Audio #2
ID : 3
Format : AC-3
Format/Info : Audio Coding 3
Mode extension : CM (complete main)
Codec ID : A_AC3
Duration : 1h 50mn
Bit rate mode : Constant
Bit rate : 384 Kbps
Channel(s) : 6 channels
Channel positions : Front: L C R, Side: L R, LFE
Sampling rate : 48.0 KHz
Bit depth : 16 bits
Compression mode : Lossy
Stream size : 303 MiB (5%)
Title : AC3 5.1 @ 384 kbps - Ю.Живов
Language : Russian
Default : No
Forced : No
Audio #3
ID : 4
Format : DTS
Format/Info : Digital Theater Systems
Codec ID : A_DTS
Duration : 1h 50mn
Bit rate mode : Constant
Bit rate : 1 510 Kbps
Channel(s) : 6 channels
Channel positions : Front: L C R, Side: L R, LFE
Sampling rate : 48.0 KHz
Bit depth : 24 bits
Compression mode : Lossy
Stream size : 1.16 GiB (18%)
Title : DTS 5.1 @ 1536 kbps - Ю.Немахов
Language : Russian
Default : No
Forced : No
Audio #4
ID : 5
Format : DTS
Format/Info : Digital Theater Systems
Codec ID : A_DTS
Duration : 1h 50mn
Bit rate mode : Constant
Bit rate : 1 510 Kbps
Channel(s) : 6 channels
Channel positions : Front: L C R, Side: L R, LFE
Sampling rate : 48.0 KHz
Bit depth : 24 bits
Compression mode : Lossy
Stream size : 1.16 GiB (18%)
Title : DTS 5.1 @ 1536 kbps
Language : English
Default : No
Forced : No
Text #1
ID : 6
Format : UTF-8
Codec ID : S_TEXT/UTF8
Codec ID/Info : UTF-8 Plain Text
Language : Russian
Default : No
Forced : No
Text #2
ID : 7
Format : UTF-8
Codec ID : S_TEXT/UTF8
Codec ID/Info : UTF-8 Plain Text
Language : English
Default : No
Forced : No

_________________
Подпись отключена за нарушение правил форума

Создавать темы 23-Фев-2012 17:20

[Профиль]  [ЛС] 

Rustam777

Стаж: 6 лет 4 месяца

Сообщений: 89

Симпатии: 1

xassi, Дружище СПС за фильм но мы застряли на 53%. Пожалуйста дайте раздачу.

Создавать темы 03-Апр-2012 07:00

[Профиль]  [ЛС] 

djek

Стаж: 5 лет 10 месяцев

Сообщений: 90

Симпатии: 4

раздайте добрые люди !!!

Создавать темы 13-Май-2013 14:30

[Профиль]  [ЛС] 

CREDO_2006

Стаж: 5 лет 8 месяцев

Сообщений: 19

Симпатии: 1

Фильм суппер !!!

Создавать темы 27-Июн-2013 14:54

[Профиль]  [ЛС] 
Показать сообщения:    
Ответить на тему

Текущее время: 24-Окт 05:33

Часовой пояс: UTC + 5



Вы не можете начинать темы
Вы не можете отвечать на сообщения
Вы не можете редактировать свои сообщения
Вы не можете удалять свои сообщения
Вы не можете голосовать в опросах
Вы не можете прикреплять файлы к сообщениям
Вы не можете скачивать файлы