[#104] Развод Надера и Симин / Jodaeiye Nader az Simin (Асгар Фархади) [2011 г., драма, BDRip 720р]

Ответить на тему
 

ziyod ®

Стаж: 7 лет 9 месяцев

Сообщений: 367

Симпатии: 60

Развод Надера и Симин
Jodaeiye Nader az Simin
-«Ugly truth, sweet lies»- Информация о фильме:
Год выпуска: 2011
Страна: Иран / Asghar Farhadi
Жанр: драма
Продолжительность: 02:02:58
Перевод: Профессиональный (многоголосый, закадровый) [лицензия]
Режиссер: Асгар Фархади--В ролях: Пейман Моади, Лейла Хатами, Саре Байат, Шахаб Хоссейни, Сарина Фархади, Мерила Зареи, Али-Асгар Шахбази, Бабак Карими, Кимиа Хуссейни, Ширин Язданбакхш--Описание: Супруги Надер и Симин решили уехать из Ирана в поисках лучшей жизни. Но в один момент Надер все-таки решает остаться рядом со своим отцом, страдающим болезнью Альцгеймера. Симин подает на развод в надежде уехать с их 11-летней дочерью, но судебное решение оказывается не в ее пользу. Дочь, тем временем, надеется, что мама одумается и вернется.--Рейтинг:
      Топ250:69--

Награды

Оскар, 2012 год
Номинации (2):
Лучший сценарий
Лучший фильм на иностранном языке — «Иран»
Золотой глобус, 2012 год
Победитель (1):
Лучший фильм на иностранном языке — «Иран»
Британская академия, 2012 год
Номинации (1):
Лучший фильм на иностранном языке
Азиатская киноакадемия, 2012 год
Номинации (5):
Лучший фильм
Лучшая женская роль (Лейла Хатами)
Лучший режиссер (Асгар Фархади)
Лучшая работа сценариста (Асгар Фархади)
Лучший монтаж
Берлинский кинофестиваль, 2011 год
Победитель (5):
Золотой Медведь
Серебряный Медведь за лучшую мужскую роль (Шахаб Хоссейни, Пейман Моади) — «(awarded to to the acting ensemble)»
Серебряный Медведь за лучшую женскую роль (Лейла Хатами, Саре Байат) — «(awarded to to the acting ensemble)»
Приз экуменического (христианского) жюри (конкурсная программа)
Приз газеты Berliner Morgenpost
Сан-Себастьян, 2011 год
Победитель (1):
Награда Otra Mirada испанского телеканала TVE
--Файл:
Качество: BDRip 720р
Формат: MKV
Видео кодек: H.26x
Аудио кодек: AC3
Видео: 4319 kb/s, 1280x696
Аудио: 448 kb/s (6 ch)--

MI

General
Unique ID                                : 227729995020693784933460841147234699254 (0xAB5333A049BB6D658A410B777D42C7F6)
Complete name                            : Razvod.Nadera.i.Simin.2011.P.BDRip.720p.mkv
Format                                   : Matroska
Format version                           : Version 2
File size                                : 4.10 GiB
Duration                                 : 2h 2mn
Overall bit rate                         : 4 769 Kbps
Movie name                               : RAZVOD_NADERA_I_SIMIN.D.BDRip.720p.ELEKTRI4KA
Encoded date                             : UTC 2012-02-23 19:41:34
Writing application                      : mkvmerge v4.0.0 ('The Stars were mine') сборка от Jun  6 2010 16:18:42
Writing library                          : libebml v1.0.0 + libmatroska v1.0.0
Video
ID                                       : 1
Format                                   : AVC
Format/Info                              : Advanced Video Codec
Format profile                           : [email protected]
Format settings, CABAC                   : Yes
Format settings, ReFrames                : 5 frames
Codec ID                                 : V_MPEG4/ISO/AVC
Duration                                 : 2h 2mn
Bit rate                                 : 4 319 Kbps
Width                                    : 1 280 pixels
Height                                   : 696 pixels
Display aspect ratio                     : 16:9
Frame rate                               : 23.976 fps
Color space                              : YUV
Chroma subsampling                       : 4:2:0
Bit depth                                : 8 bits
Scan type                                : Progressive
Bits/(Pixel*Frame)                       : 0.202
Stream size                              : 3.63 GiB (89%)
Title                                    : RAZVOD_NADERA_I_SIMIN.D.BDRip.720p.ELEKTRI4KA
Writing library                          : x264 core 120 r2120 0c7dab9
Encoding settings                        : cabac=1 / ref=5 / deblock=1:0:0 / analyse=0x3:0x133 / me=umh / subme=7 / psy=1 / psy_rd=1.00:0.00 / mixed_ref=1 / me_range=16 / chroma_me=1 / trellis=1 / 8x8dct=1 / cqm=0 / deadzone=21,11 / fast_pskip=0 / chroma_qp_offset=-2 / threads=6 / sliced_threads=0 / nr=0 / decimate=1 / interlaced=0 / bluray_compat=0 / constrained_intra=0 / bframes=3 / b_pyramid=2 / b_adapt=2 / b_bias=0 / direct=3 / weightb=1 / open_gop=0 / weightp=2 / keyint=250 / keyint_min=23 / scenecut=40 / intra_refresh=0 / rc_lookahead=50 / rc=2pass / mbtree=1 / bitrate=4319 / ratetol=1.0 / qcomp=0.60 / qpmin=0 / qpmax=69 / qpstep=4 / cplxblur=20.0 / qblur=0.5 / ip_ratio=1.40 / aq=1:1.00
Language                                 : English
Default                                  : No
Forced                                   : No
Audio
ID                                       : 2
Format                                   : AC-3
Format/Info                              : Audio Coding 3
Mode extension                           : CM (complete main)
Codec ID                                 : A_AC3
Duration                                 : 2h 2mn
Bit rate mode                            : Constant
Bit rate                                 : 448 Kbps
Channel(s)                               : 6 channels
Channel positions                        : Front: L C R, Side: L R, LFE
Sampling rate                            : 48.0 KHz
Bit depth                                : 16 bits
Compression mode                         : Lossy
Delay relative to video                  : 710ms
Stream size                              : 394 MiB (9%)
Language                                 : Russian
Default                                  : No
Forced                                   : No
Text #1
ID                                       : 3
Format                                   : UTF-8
Codec ID                                 : S_TEXT/UTF8
Codec ID/Info                            : UTF-8 Plain Text
Language                                 : Russian
Default                                  : No
Forced                                   : No
Text #2
ID                                       : 4
Format                                   : UTF-8
Codec ID                                 : S_TEXT/UTF8
Codec ID/Info                            : UTF-8 Plain Text
Language                                 : English
Default                                  : No
Forced                                   : No
--

Создавать темы 23-Фев-2012 23:14

[Профиль]  [ЛС] 

луу

Стаж: 6 лет 10 месяцев

Сообщений: 14

Симпатии: 2

Спасибо за качество, ещё немного скорости и было бы вообще супер

Создавать темы 23-Фев-2012 23:43

[Профиль]  [ЛС] 

Pendalf

Стаж: 6 лет 6 месяцев

Сообщений: 416

Симпатии: 34

ziyod, огромное спасибо, давно ждал этот фильм!

Создавать темы 24-Фев-2012 00:59

[Профиль]  [ЛС] 

Vultus

Стаж: 5 лет 11 месяцев

Сообщений: 5

Симпатии: 1

ziyod, огромное спасибо, давно ждал этот фильм!
-Присоединяюсь. тоже давно хотел посмотреть! Спасибо!

Создавать темы 24-Фев-2012 11:21

[Профиль]  [ЛС] 

Pendalf

Стаж: 6 лет 6 месяцев

Сообщений: 416

Симпатии: 34

Сегодня сделаю рип в ави на 2,18. Завтра в обед-вечером выложу)

Создавать темы 27-Фев-2012 23:12

[Профиль]  [ЛС] 

Barca Fan

Стаж: 5 лет 11 месяцев

Сообщений: 47

Симпатии: 6

Pendalf, Ждём)

Создавать темы 28-Фев-2012 01:24

[Профиль]  [ЛС] 

akhmedoff

Стаж: 5 лет 8 месяцев

Сообщений: 33

ziyod, все мы тут застряли на 69%, может вернетесь?

Создавать темы 05-Фев-2013 00:46

[Профиль]  [ЛС] 

ziyod ®

Стаж: 7 лет 9 месяцев

Сообщений: 367

Симпатии: 60

akhmedoff, извиняюсь... давно удалил с компа... Может другие помогут.

Создавать темы 31-Мар-2013 12:08

[Профиль]  [ЛС] 

Нигина

Стаж: 4 года 5 месяцев

Сообщений: 17

Спасибо!!!наконец-то раздача пошла!!!!

Создавать темы 31-Окт-2013 21:00

[Профиль]  [ЛС] 

farhod.ihz

Стаж: 6 лет 7 месяцев

Сообщений: 56

Симпатии: 7

фильм класс кто посмотрел концовка фильма очень интересна, так дочка с кем останиться

Создавать темы 02-Янв-2014 00:44

[Профиль]  [ЛС] 

Kakcam

Стаж: 7 лет

Сообщений: 137

Симпатии: 7

огромное спасибо давно хотел посмотреть этот фильм!

Создавать темы 14-Янв-2014 19:23

[Профиль]  [ЛС] 

sheroz_1993

Стаж: 5 лет 10 месяцев

Сообщений: 13

Симпатии: 1

Пожалуйста вернитесь на раздачу.

Создавать темы 18-Фев-2015 10:25

[Профиль]  [ЛС] 

azzhkmv

Стаж: 4 года 10 месяцев

Сообщений: 26

Симпатии: 3

Пожалуйста вернитесь на раздачу! Спасибо

Создавать темы 19-Мар-2017 22:15

[Профиль]  [ЛС] 
Показать сообщения:    
Ответить на тему

Текущее время: 14-Дек 13:07

Часовой пояс: UTC + 5



Вы не можете начинать темы
Вы не можете отвечать на сообщения
Вы не можете редактировать свои сообщения
Вы не можете удалять свои сообщения
Вы не можете голосовать в опросах
Вы не можете прикреплять файлы к сообщениям
Вы не можете скачивать файлы