Кот в сапогах / Puss in Boots (Крис Миллер) [2011 г., мультфильм, фэнтези, комедия, приключения, BDRip 720р]

Ответить на тему
 

ziyod ®

Стаж: 7 лет 6 месяцев

Сообщений: 367

Симпатии: 60

Кот в сапогах
Puss in Boots
-«А до Шрэка был...»- Информация о мультфильме:
Год выпуска: 2011
Выпущено: США, Buckaroo Entertainment
Жанр: мультфильм, фэнтези, комедия, приключения
Продолжительность: 01:30:14
Перевод: Дублированнoе [лицензия]
Режиссер: Крис Миллер--В ролях: Антонио Бандерас, Сальма Хайек, Зак Галифианакис, Билли Боб Торнтон, Эми Седарис, Констанс Мари, Гильермо дель Торо, Рич Дитль, Райан Крего, Том Вилер--Описание: Мечи пересекутся и сердца будут разбиты в приключениях с одним из самых любимых персонажей из Шрэка — котом в сапогах. Это удалая поездка ранних лет кота в сапогах, когда он объединяется с умным Шалтай-Болтаем и сообразительной Китти, чтобы украсть знаменитого Гуся, несущего золотые яйца.--Рейтинг:
     --Знаете ли вы, что...
  • Клятва Шалтая-Болтая и Кота: «Первое правило — не говорить о Бобовом клубе. Второе правило — никогда не говорить о Бобовом клубе» — является прямой отсылкой к культовому фильму «Бойцовский клуб» Дэвида Финчера (1999 год).
--Файл:
Качество: BDRip 720р
Формат: MKV
Видео кодек: H.26x
Видео: 1280x546, 4516 kb/s
Аудио 1: Russian: AC3, 448 kb/s (6 ch)
Аудио 2: English: DTS, 1510 kb/s (6 ch)--

MI

General
Unique ID                                : 226656925451661313706280807083434414204 (0xAA8489362EBB2265B3375CF57AED907C)
Complete name                            : Kot.v.sapogah.2011.D.BDRip.720p.mkv
Format                                   : Matroska
Format version                           : Version 2
File size                                : 4.65 GiB
Duration                                 : 1h 30mn
Overall bit rate                         : 7 377 Kbps
Encoded date                             : UTC 2012-02-15 14:13:47
Writing application                      : mkvmerge v3.3.0 ('Language') built on Mar 24 2010 14:59:24
Writing library                          : libebml v0.8.0 + libmatroska v0.9.0
Video
ID                                       : 1
Format                                   : AVC
Format/Info                              : Advanced Video Codec
Format profile                           : [email protected]
Format settings, CABAC                   : Yes
Format settings, ReFrames                : 11 frames
Codec ID                                 : V_MPEG4/ISO/AVC
Duration                                 : 1h 30mn
Bit rate                                 : 5 416 Kbps
Width                                    : 1 280 pixels
Height                                   : 546 pixels
Display aspect ratio                     : 2.35:1
Frame rate                               : 23.976 fps
Color space                              : YUV
Chroma subsampling                       : 4:2:0
Bit depth                                : 8 bits
Scan type                                : Progressive
Bits/(Pixel*Frame)                       : 0.323
Stream size                              : 3.32 GiB (71%)
Title                                    : Puss.In.Boots.2011.2D.BluRay.720p.DTS.x264-CHD
Writing library                          : x264 core 119 r2106 07efeb4
Encoding settings                        : cabac=1 / ref=11 / deblock=1:-3:-3 / analyse=0x3:0x113 / me=umh / subme=10 / psy=1 / psy_rd=1.10:0.15 / mixed_ref=1 / me_range=32 / chroma_me=1 / trellis=2 / 8x8dct=1 / cqm=2 / deadzone=21,11 / fast_pskip=0 / chroma_qp_offset=-2 / threads=12 / sliced_threads=0 / nr=0 / decimate=1 / interlaced=0 / bluray_compat=0 / constrained_intra=0 / bframes=6 / b_pyramid=2 / b_adapt=2 / b_bias=0 / direct=3 / weightb=1 / open_gop=0 / weightp=2 / keyint=250 / keyint_min=23 / scenecut=40 / intra_refresh=0 / rc_lookahead=60 / rc=2pass / mbtree=1 / bitrate=5416 / ratetol=1.0 / qcomp=0.60 / qpmin=1 / qpmax=63 / qpstep=4 / cplxblur=20.0 / qblur=0.5 / vbv_maxrate=40000 / vbv_bufsize=30000 / nal_hrd=none / ip_ratio=1.40 / aq=1:0.80
Language                                 : English
Default                                  : Yes
Forced                                   : No
Audio #1
ID                                       : 2
Format                                   : AC-3
Format/Info                              : Audio Coding 3
Mode extension                           : CM (complete main)
Codec ID                                 : A_AC3
Duration                                 : 1h 30mn
Bit rate mode                            : Constant
Bit rate                                 : 448 Kbps
Channel(s)                               : 6 channels
Channel positions                        : Front: L C R, Side: L R, LFE
Sampling rate                            : 48.0 KHz
Bit depth                                : 16 bits
Compression mode                         : Lossy
Stream size                              : 289 MiB (6%)
Default                                  : Yes
Forced                                   : No
Audio #2
ID                                       : 3
Format                                   : DTS
Format/Info                              : Digital Theater Systems
Codec ID                                 : A_DTS
Duration                                 : 1h 30mn
Bit rate mode                            : Constant
Bit rate                                 : 1 510 Kbps
Channel(s)                               : 6 channels
Channel positions                        : Front: L C R, Side: L R, LFE
Sampling rate                            : 48.0 KHz
Bit depth                                : 24 bits
Compression mode                         : Lossy
Stream size                              : 974 MiB (20%)
Title                                    : dts 5.1 1536kbps
Language                                 : English
Default                                  : No
Forced                                   : No
--
--ОБЛОЖКИ

Создавать темы 23-Фев-2012 23:40

[Профиль]  [ЛС] 

sh.safarov

Стаж: 5 лет 9 месяцев

Сообщений: 30

Симпатии: 1

Спасибо

Создавать темы 25-Фев-2012 02:00

[Профиль]  [ЛС] 

Rwa

Стаж: 6 лет 5 месяцев

Сообщений: 27

Симпатии: 1

Спасибк..)) Качаем ... ))

Создавать темы 25-Фев-2012 12:00

[Профиль]  [ЛС] 

jokerbek

Стаж: 6 лет 9 месяцев

Сообщений: 184

Симпатии: 9

оО спасибоо ziyod,

Создавать темы 25-Фев-2012 15:06

[Профиль]  [ЛС] 

yuragreek

Стаж: 6 лет 7 месяцев

Сообщений: 125

Симпатии: 3

Спасибо Автор!!!

Создавать темы 29-Фев-2012 15:02

[Профиль]  [ЛС] 

Rustam777

Стаж: 6 лет 3 месяца

Сообщений: 89

Симпатии: 1

СПС. Скорости бы?

Создавать темы 12-Мар-2012 23:10

[Профиль]  [ЛС] 

boy200007

Стаж: 6 лет 10 месяцев

Сообщений: 74

чёт даёт 502 ошибку

Создавать темы 26-Мар-2012 01:59

[Профиль]  [ЛС] 

Mixer City

Стаж: 6 лет 9 месяцев

Сообщений: 754

Симпатии: 63

boy200007, везде так.

Создавать темы 26-Мар-2012 02:09

[Профиль]  [ЛС] 

Alla

Стаж: 6 лет 11 месяцев

Сообщений: 111

На этой раздаче у меня траф уходит почему?

Создавать темы 26-Ноя-2012 18:03

[Профиль]  [ЛС] 

DMiTRY

Стаж: 6 лет 4 месяца

Сообщений: 649

Симпатии: 28

могу залить в 1080p.

Создавать темы 26-Ноя-2012 21:42

[Профиль]  [ЛС] 

Alla

Стаж: 6 лет 11 месяцев

Сообщений: 111

Залей

Создавать темы 27-Ноя-2012 09:12

[Профиль]  [ЛС] 

erha

Стаж: 4 года 11 месяцев

Сообщений: 74

друзья, дайте газу!

Создавать темы 17-Янв-2013 13:17

[Профиль]  [ЛС] 

erha

Стаж: 4 года 11 месяцев

Сообщений: 74

дайте скорости плиз, уже неделю качаю и только 11 % скачано

Создавать темы 20-Янв-2013 09:41

[Профиль]  [ЛС] 
Показать сообщения:    
Ответить на тему

Текущее время: 25-Сен 02:19

Часовой пояс: UTC + 5



Вы не можете начинать темы
Вы не можете отвечать на сообщения
Вы не можете редактировать свои сообщения
Вы не можете удалять свои сообщения
Вы не можете голосовать в опросах
Вы не можете прикреплять файлы к сообщениям
Вы не можете скачивать файлы