Титаник / Titanic (Джеймс Кэмерон) [1997 г., Приключения / Драма / Мелодрама, HDRip]

Страницы :  1, 2  След.

Ответить на тему
 

Kubaev_Muhiddin ®

Стаж: 6 лет 8 месяцев

Сообщений: 104

Симпатии: 34

Титаник / Titanic
Год выпуска: 1997
Страна: США
Жанр: Приключения / Драма / Мелодрама
Продолжительность: 03:06:50
Перевод: Профессиональный (полное дублирование)
Режиссер: Джеймс Кэмерон
В ролях: Леонардо ДиКаприо, Кейт Уинслет, Билли Зэйн, Кэти Бэйтс, Фрэнсис Фишер, Глория Стюарт, Билл Пэкстон, Дэвид Уорнер, Виктор Гарбер, Джонатан Хайд, Сьюзи Эймис, Льюис Эбернэти, Дэнни Нуччи, Ивэн Стюарт, Йоан Граффадд, Ричард Грэм, Пол Брайтуэлл, Рон Доначи, Эрик Брэден, Шарлотт Чаттон, Бернард Фокс, Майкл Энсайн, Джинетт Голдштайн, Линда Кернс, Розалинд Эйрес, Брайан Уолш, Рокки Тэйлор, Саймон Крэйн, Крэйг Келли, Грегори Кук, Джеймс Ланкастер, Амбер Уэдделл, Элисон Уэдделл, Мартин Лэйнг, Ричард Фокс, Ник Мини, Пол Херберт, Эмметт Джеймс, Крис Бирн, Джеймс Гарретт, Эрик Холланд, Мартин Хаб, Сет Эдкинс, Барри Деннен, Тришиа О'Нил, Бьорн Олсен, Шэй Даффин, Грег Эллис, Патрик Мерфи, Саманта Хант, Энн Флетчер, Жульен Рени, Майк Баттерс, Джеймс Кэмерон, Кевин Де Ла Ной, Тони Кенни, Шон Лоулор, Дон Линч, Джонни Мартин, Майк О'Нил, Стивен Куэйл, Оливия Роузвуд
Описание: 10 апреля 1912 года семнадцатилетняя Роза оказывается на борту корабля в каютах первого класса вместе со своей матерью Дьюитт Бьюкейтер и женихом — промышленником Каледоном Хокли. Роза не желала выходить замуж за Каледона, однако её мать всеми силами стремилась выдать дочь за нувориша, чтобы поправить своё пошатнувшееся финансовое положение среди филадельфийской элиты. Тем временем, бродяга и художник по имени Джек Доусон и его лучший друг Фабрицио Де Росси выигрывают в покер билеты третьего класса на судно. Роза, страдая от навязанного брака, хочет совершить самоубийство, спрыгнув с кормы судна. Джек замечает её и не позволяет совершить столь опрометчивый поступок. Вскоре их обнаруживают члены команды «Титаника», которые сначала подумали, что совершается насилие, но Роза объясняет им, что это была случайность. Каледон благодарит Джека, неохотно приглашая его пообедать с ними следующим вечером в обеденном зале первого класса. С этого момента между Джеком и Розой завязывается дружба. Он показывает ей свой альбом с художественными работами. Их отношения становятся более глубокими, когда они оставляют пассажиров первого класса во время обеда и сбегают в каюты третьего класса, где в самом разгаре проходит праздник. Там они встречают Фабрицио Де Росси и Томми Райана, друзей Джека...
Доп. информация: Бюджет: $ 200.000.000
Оскар — 1998
Победитель в категориях:
Лучший фильм
Лучший режиссер — Джеймс Кэмерон
Лучшая работа художника — Питер Ламонт
Лучшая операторская работа — Расселл Карпентер
Лучший дизайн костюмов
Лучшие визуальные эффекты — Роберт Легато
Лучший звук — Гэри Ридстром, Марк Улано, Том Джонсон
Лучший монтаж — Джеймс Кэмерон, Конрад Бафф-четвертый, Ричард Э. Харрис
Лучшая песня — Джеймс Хорнер, Уилл Дженнингс
Лучшая музыка (драма) — Джеймс Хорнер
Лучший монтаж звуковых эффектов — Том Беллфорт
Номинирован в категориях:
Лучшая актриса — Кейт Уинслет
Лучшая актриса второго плана — Глория Стюарт
Лучший грим — Грег Кэнном, Саймон Томпсон
Золотой Глобус — 1998
Победитель в категориях:
Лучший фильм (драма)
Лучшая режиссерская работа — Джеймс Кэмерон
Лучшая музыка — Джеймс Хорнер
Номинирован в категориях:
Лучший актер (драма) — Леонардо ДиКаприо
Лучшая актриса (драма) — Кейт Уинслет
Лучший сценарий — Джеймс Кэмерон
Лучшая актриса второго плана — Глория Стюарт
Качество: HDRip
Формат: AVI
Видео кодек: XviD
Аудио кодек: AC3
Видео: 704x304, 25.0 fps, 1 833 Kbps
Аудио: 6 channels, 48.0 KHz, 384 Kbps

Медиа инфо

Video
ID : 0
Format : MPEG-4 Visual
Format profile : Advanced [email protected]
Format settings, BVOP : 1
Format settings, QPel : No
Format settings, GMC : No warppoints
Format settings, Matrix : Default (MPEG)
Codec ID : XVID
Codec ID/Hint : XviD
Duration : 3h 6mn
Bit rate : 1 833 Kbps
Width : 704 pixels
Height : 304 pixels
Display aspect ratio : 2.35:1
Frame rate : 25.000 fps
Color space : YUV
Chroma subsampling : 4:2:0
Bit depth : 8 bits
Scan type : Progressive
Compression mode : Lossy
Bits/(Pixel*Frame) : 0.343
Stream size : 2.39 GiB (82%)
Writing library : XviD 1.2.1 (UTC 2008-12-04)
Audio
ID : 1
Format : AC-3
Format/Info : Audio Coding 3
Mode extension : CM (complete main)
Codec ID : 2000
Duration : 3h 6mn
Bit rate mode : Constant
Bit rate : 384 Kbps
Channel(s) : 6 channels
Channel positions : Front: L C R, Side: L R, LFE
Sampling rate : 48.0 KHz
Bit depth : 16 bits
Compression mode : Lossy
Stream size : 513 MiB (17%)
Alignment : Split accross interleaves
Interleave, duration : 40 ms (1.00 video frame)
Interleave, preload duration : 500 ms

Скриншоты











Последний раз редактировалось: Kubaev_Muhiddin (2013-08-06 00:24), всего редактировалось 2 раз(а)

Создавать темы 26-Фев-2012 12:15

[Профиль]  [ЛС] 

victor0778

Стаж: 6 лет 7 месяцев

Сообщений: 1670

Симпатии: 142

здесь точно Качество: HDTVRip?

Создавать темы 26-Фев-2012 13:29

[Профиль]  [ЛС] 

MrСтас

Стаж: 5 лет 8 месяцев

Сообщений: 45

Уважаемые помогите скачать я уже дня 3 качаю !

Создавать темы 10-Мар-2012 11:22

[Профиль]  [ЛС] 

Pendalf

Стаж: 6 лет 3 месяца

Сообщений: 416

Симпатии: 34

должно быть HDTVRip, т.к. другого HD исходника не существует, к сожалению((

Создавать темы 10-Мар-2012 11:35

[Профиль]  [ЛС] 

vadimG

Стаж: 5 лет 6 месяцев

Сообщений: 6

спасибо

Создавать темы 08-Апр-2012 17:25

[Профиль]  [ЛС] 

Jovoh

Стаж: 5 лет 8 месяцев

Сообщений: 22

ПАЖАЛУСТА ДАЙТЕ СКОРСТ

Создавать темы 13-Апр-2012 07:28

[Профиль]  [ЛС] 

SkyBlue

Стаж: 5 лет 8 месяцев

Сообщений: 7

Kubaev_Muhiddin, ДАЙТЕ СКОРОСТИ!!!!!

Создавать темы 14-Апр-2012 20:10

[Профиль]  [ЛС] 

stalker79

Стаж: 5 лет 8 месяцев

Сообщений: 7

ПАЖАЛУСТА ДАЙТЕ СКОРСТИ

Создавать темы 15-Апр-2012 14:09

[Профиль]  [ЛС] 

Anastasiyaa

Стаж: 5 лет 4 месяца

Сообщений: 12

Симпатии: 1

Дайте скорости

Создавать темы 27-Май-2012 20:08

[Профиль]  [ЛС] 

bars

Стаж: 5 лет 8 месяцев

Сообщений: 3

17+100 KB/s dayti pojulusta

Создавать темы 05-Июн-2012 14:26

[Профиль]  [ЛС] 

Mactavish

Стаж: 6 лет

Сообщений: 38

Дайте скорости так же дела не пойдут.

Создавать темы 24-Июн-2012 22:53

[Профиль]  [ЛС] 

Тими

Стаж: 6 лет 5 месяцев

Сообщений: 94

Симпатии: 6

Дайте скорости пожалуйста!!!!!!!!! остановился на 73,3 % !!!!(((((

Создавать темы 12-Авг-2012 07:35

[Профиль]  [ЛС] 

sunce

Стаж: 5 лет 8 месяцев

Сообщений: 29

фильмец просто огого)))

Создавать темы 26-Авг-2012 12:48

[Профиль]  [ЛС] 

sunce

Стаж: 5 лет 8 месяцев

Сообщений: 29

только скорости не хватает (((

Создавать темы 26-Авг-2012 12:49

[Профиль]  [ЛС] 

Актам Денмухаммадиев

Стаж: 4 года 7 месяцев

Сообщений: 113

СКОРОСТИ, ПОЖАЛУЙСТА!!! bi bi ay

Создавать темы 10-Апр-2013 20:07

[Профиль]  [ЛС] 
Показать сообщения:    
Ответить на тему

Текущее время: 25-Сен 21:58

Часовой пояс: UTC + 5



Вы не можете начинать темы
Вы не можете отвечать на сообщения
Вы не можете редактировать свои сообщения
Вы не можете удалять свои сообщения
Вы не можете голосовать в опросах
Вы не можете прикреплять файлы к сообщениям
Вы не можете скачивать файлы