Шаолиньский (Убойный) футбол / Shaolin Soccer (Стивен Чоу) [2001 г., Комедия / Фэнтези / Боевик / Спорт, HDRip]

Страницы :  1, 2  След.

Ответить на тему
 

Kubaev_Muhiddin ®

Стаж: 6 лет 7 месяцев

Сообщений: 104

Симпатии: 34

Шаолиньский (Убойный) футбол / Shaolin Soccer
Год выпуска: 2001
Страна: Гонконг
Жанр: Комедия / Фэнтези / Боевик / Спорт
Продолжительность: 01:25:38
Перевод: Профессиональный (полное дублирование)
Режиссер: Стивен Чоу
В ролях: Стивен Чоу, Чжао Вэй, У Мэнда (Ричард Нг Мангдат), Се Сянь (Цзэ Йинь), Хуан Ифэй, (Вонг Ятфэй), Чэнь Гоцянь, Линь Цзыцун (Лам Цзичхунг)
Описание: Команда Шаолинь входит в открытый чемпионат кубка Гонконга, где они проходят в финал (победы даются им очень легко). В финале они встречаются с командой “Зло”, тренером которой является давний враг Фэна, Сюн. Сюн планирует завоевать Кубок, накачав своих игроков анаболиками, предоставляющими им сверхчеловеческую силу и скорость, делающими их практически неуязвимыми. Команда Зла оказалось первым достойным соперником шаолиньцам и вернула их к реальности, продемонстрировав свои удивительные способности. “Пустая рука” и “Железная рубашка” получают серьезные травмы во время матча, команде не хватает игроков. И вот на поле выходит Мэй, обрившая голову и выдавшая себя за запасного игрока шаолиньцев.
Доп. информация:
21-й Hong Kong Film Awards
Победитель: Лучшие фотографии
Победитель: Лучший режиссер (Стивен Чоу)
Победитель: Лучший актер (Стивен Чоу)
Победитель: Лучший актер второго плана (Хуан Ифэй)
Победитель: Лучшие звуковые эффекты
Победитель: Лучшие спецэффекты
Победитель: Выдающийся молодой директор (Стивен Чоу)
Номинация: Лучшая экшн-хореография
Номинация: Лучшая кинематография
Номинация: Лучший дизайн костюмов
Номинация: Лучший монтаж
Номинация: лучший сценарий
Номинация: Best Original Film Score
Номинация: Best Original Song[1]
7-й Golden Bauhinia Awards
Победитель: Лучшие фотографии
Победитель: Лучший актер (Стивен Чоу)
Победитель: Лучший актер второго плана (Хуан Ифэй)
Качество: HDRip
Формат: AVI
Видео кодек: XviD
Аудио кодек: AC3
Видео: 704x384, 25.0 fps, 1 895 Kbps
Аудио: 6 channels, 48.0 KHz, 384 Kbps

Медиа инфо

Video
ID : 0
Format : MPEG-4 Visual
Format profile : Advanced [email protected]
Format settings, BVOP : 1
Format settings, QPel : No
Format settings, GMC : No warppoints
Format settings, Matrix : Custom
Codec ID : XVID
Codec ID/Hint : XviD
Duration : 1h 25mn
Bit rate : 1 895 Kbps
Width : 704 pixels
Height : 384 pixels
Display aspect ratio : 16:9
Frame rate : 25.000 fps
Color space : YUV
Chroma subsampling : 4:2:0
Bit depth : 8 bits
Scan type : Progressive
Compression mode : Lossy
Bits/(Pixel*Frame) : 0.280
Stream size : 1.13 GiB (83%)
Writing library : XviD 1.2.0.dev47 (UTC 2006-11-01)
Audio
ID : 1
Format : AC-3
Format/Info : Audio Coding 3
Mode extension : CM (complete main)
Codec ID : 2000
Duration : 1h 25mn
Bit rate mode : Constant
Bit rate : 384 Kbps
Channel(s) : 6 channels
Channel positions : Front: L C R, Side: L R, LFE
Sampling rate : 48.0 KHz
Bit depth : 16 bits
Compression mode : Lossy
Stream size : 235 MiB (17%)
Alignment : Split accross interleaves
Interleave, duration : 96 ms (2.40 video frames)
Interleave, preload duration : 96 ms

Скриншоты








Последний раз редактировалось: Kubaev_Muhiddin (2013-08-06 00:29), всего редактировалось 3 раз(а)

Создавать темы 26-Фев-2012 13:06

[Профиль]  [ЛС] 

victor0778

Стаж: 6 лет 6 месяцев

Сообщений: 1670

Симпатии: 142

здесь точно Качество: HDTVRip

Создавать темы 26-Фев-2012 13:33

[Профиль]  [ЛС] 

Топик был перенесен из форума Зарубежное кино в форум Азиатские фильмы


victor0778

Создавать темы 26-Фев-2012 13:34

 

RokC

Стаж: 5 лет 7 месяцев

Сообщений: 56

фильм не так уж на один раз филтм в принципе глупый и бессмысленный

Создавать темы 26-Фев-2012 14:50

[Профиль]  [ЛС] 

Jokero

Стаж: 6 лет 4 месяца

Сообщений: 176

Симпатии: 4

Прикольный фильм, помню в детсве смотрел)))

Создавать темы 26-Фев-2012 18:02

[Профиль]  [ЛС] 

Fara_

Стаж: 6 лет 1 месяц

Сообщений: 15

фильм не так уж на один раз филтм в принципе глупый и бессмысленный
Неправда прикольный ржачный фильм! Отличная фантазия у китайцев люблю этот фильм спасибо

Создавать темы 26-Фев-2012 19:18

[Профиль]  [ЛС] 

Shuxratt

Стаж: 6 лет 6 месяцев

Сообщений: 76

Симпатии: 2

Фильм супер

Создавать темы 27-Фев-2012 11:34

[Профиль]  [ЛС] 

IHTISHKA

Стаж: 7 лет 3 месяца

Сообщений: 8

этот фильм отличный концерт

Создавать темы 28-Фев-2012 10:33

[Профиль]  [ЛС] 

Sparrow

Стаж: 5 лет 5 месяцев

Сообщений: 14

Симпатии: 2

Классный и смешной фильм. Кому понравился рекоммендую "Разборки в стиле кунг-фу" ("Kung Fu Hustle") с тем же Стивеном Чоу.

Создавать темы 22-Мар-2012 22:01

[Профиль]  [ЛС] 

NodirOdilov

Стаж: 5 лет 5 месяцев

Сообщений: 4

Фильм супер

Создавать темы 24-Мар-2012 17:27

[Профиль]  [ЛС] 

Женечка

Стаж: 5 лет 4 месяца

Сообщений: 1

Классный и смешной фильм. Кому понравился рекоммендую "Разборки в стиле кунг-фу" ("Kung Fu Hustle") с тем же Стивеном Чоу.
согласна фильм шикарный позитивный ,смешной и небессмысленный! советую посмотреть настоящим ценителям юмора!

Создавать темы 24-Апр-2012 21:01

[Профиль]  [ЛС] 

Net_Star-X

Стаж: 6 лет 1 месяц

Сообщений: 11

фильм вообще класс!!!

Создавать темы 06-Июн-2012 20:09

[Профиль]  [ЛС] 

Understuped

Стаж: 6 лет 3 месяца

Сообщений: 107

Почему нет раздачи хотя указано то что 11 сидеров!

Создавать темы 02-Июл-2012 20:08

[Профиль]  [ЛС] 

buk501

Стаж: 5 лет 2 месяца

Сообщений: 2

film super! spasibo!!!!!

Создавать темы 27-Июл-2012 15:12

[Профиль]  [ЛС] 

YUPI

Стаж: 5 лет 2 месяца

Сообщений: 56

Симпатии: 1

Самый убойный фильм про футбол......

Создавать темы 27-Июл-2012 16:52

[Профиль]  [ЛС] 
Показать сообщения:    
Ответить на тему

Текущее время: 23-Авг 20:32

Часовой пояс: UTC + 5



Вы не можете начинать темы
Вы не можете отвечать на сообщения
Вы не можете редактировать свои сообщения
Вы не можете удалять свои сообщения
Вы не можете голосовать в опросах
Вы не можете прикреплять файлы к сообщениям
Вы не можете скачивать файлы