Такие разные близнецы / Jack and Jill (Деннис Дуган) [2011 г., Комедия, BDRip-720p]

Ответить на тему
 

DMiTRY ®

Стаж: 6 лет 5 месяцев

Сообщений: 649

Симпатии: 28

Такие разные близнецы / Jack and Jill
Год выпуска: 2011
Страна: CША
Жанр: Комедия
Продолжительность: 01:27:34
Перевод: Профессиональный (полное дублирование)
Режиссер: Деннис Дуган
В ролях: Адам Сэндлер, Кэти Холмс, Аль Пачино, Роэн Чанд, Эудженио Дербез, Дэвид Спейд, Ник Свардсон, Тим Медоуз, Аллен Коверт и др.
Описание: В центре сюжета — семейный мужчина по имени Джек, к которому на День Благодарения нагрянула в гости его взбалмошная сестра-близняшка Джилл. И ладно бы погостила да махнула ручкой, так ведь нет: Джилл прочно обосновалась в доме братца и, кажется, в ближайшее время не собирается уезжать.
Качество: BDRip-720p
Формат: MKV
Видео кодек: AVC/H.264
Аудио кодек: AC3
Видео: 1280x694, 23.976 fps, 5 353 Kb/s
Аудио #1: AC3, 6 channels, 448 Kb/s, 48.0 KHz | Русский (дублированный)
Аудио #2: DTS, 6 channels, 1 510 Kb/s, 48.0 KHz | Английский (оригинал)
Cубтитры: Английские

Скриншоты



Media Info

Format : Matroska
Format version : Version 2
File size : 4.64 GiB
Duration : 1h 30mn
Overall bit rate : 7 313 Kbps
Movie name : Jack.and.Jill.2011.D.BDRip.720p.ELEKTRI4KA
Encoded date : UTC 2012-02-21 16:36:46
Writing application : mkvmerge v5.2.1 ('A Far Off Place') built on Jan 2 2012 23:21:10
Writing library : libebml v1.2.3 + libmatroska v1.3.0
Video
ID : 1
Format : AVC
Format/Info : Advanced Video Codec
Format profile : [email protected]
Format settings, CABAC : Yes
Format settings, ReFrames : 8 frames
Codec ID : V_MPEG4/ISO/AVC
Duration : 1h 30mn
Bit rate : 5 353 Kbps
Width : 1 280 pixels
Height : 694 pixels
Display aspect ratio : 16:9
Frame rate : 23.976 fps
Color space : YUV
Chroma subsampling : 4:2:0
Bit depth : 8 bits
Scan type : Progressive
Bits/(Pixel*Frame) : 0.251
Stream size : 3.31 GiB (71%)
Title : Jack.and.Jill.2011.D.BDRip.720p.ELEKTRI4KA
Writing library : x264 core 120 r2146 bcd41db
Encoding settings : cabac=1 / ref=8 / deblock=1:-3:-3 / analyse=0x3:0x113 / me=umh / subme=10 / psy=1 / psy_rd=1.05:0.10 / mixed_ref=1 / me_range=32 / chroma_me=1 / trellis=2 / 8x8dct=1 / cqm=0 / deadzone=21,11 / fast_pskip=0 / chroma_qp_offset=-2 / threads=8 / sliced_threads=0 / nr=0 / decimate=1 / interlaced=0 / bluray_compat=0 / constrained_intra=0 / bframes=6 / b_pyramid=2 / b_adapt=2 / b_bias=0 / direct=3 / weightb=1 / open_gop=0 / weightp=2 / keyint=250 / keyint_min=23 / scenecut=40 / intra_refresh=0 / rc_lookahead=40 / rc=2pass / mbtree=0 / bitrate=5353 / ratetol=1.0 / qcomp=0.70 / qpmin=0 / qpmax=69 / qpstep=4 / cplxblur=20.0 / qblur=0.5 / vbv_maxrate=40000 / vbv_bufsize=30000 / nal_hrd=none / ip_ratio=1.40 / pb_ratio=1.30 / aq=2:0.80
Language : English
Default : No
Forced : No
Audio #1
ID : 2
Format : AC-3
Format/Info : Audio Coding 3
Mode extension : CM (complete main)
Codec ID : A_AC3
Duration : 1h 30mn
Bit rate mode : Constant
Bit rate : 448 Kbps
Channel(s) : 6 channels
Channel positions : Front: L C R, Side: L R, LFE
Sampling rate : 48.0 KHz
Bit depth : 16 bits
Compression mode : Lossy
Stream size : 291 MiB (6%)
Title : [email protected] kb/s
Language : Russian
Default : No
Forced : No
Audio #2
ID : 3
Format : DTS
Format/Info : Digital Theater Systems
Codec ID : A_DTS
Duration : 1h 30mn
Bit rate mode : Constant
Bit rate : 1 510 Kbps
Channel(s) : 6 channels
Channel positions : Front: L C R, Side: L R, LFE
Sampling rate : 48.0 KHz
Bit depth : 24 bits
Compression mode : Lossy
Stream size : 981 MiB (21%)
Language : English
Default : No
Forced : No
Text
ID : 4
Format : UTF-8
Codec ID : S_TEXT/UTF8
Codec ID/Info : UTF-8 Plain Text
Language : English
Default : No
Forced : No
Menu
00:00:00.000 : en:00:00:00.000
00:09:41.790 : en:00:09:41.790
00:16:52.929 : en:00:16:52.929
00:22:14.708 : en:00:22:14.708
00:26:29.963 : en:00:26:29.963
00:31:27.177 : en:00:31:27.177
00:36:48.581 : en:00:36:48.581
00:40:37.018 : en:00:40:37.018
00:45:05.202 : en:00:45:05.202
00:49:04.692 : en:00:49:04.692
00:53:34.545 : en:00:53:34.545
00:59:31.276 : en:00:59:31.276
01:03:36.187 : en:01:03:36.187
01:10:06.494 : en:01:10:06.494
01:16:51.232 : en:01:16:51.232
01:22:55.220 : en:01:22:55.220


Последний раз редактировалось: DMiTRY (2012-02-26 15:51), всего редактировалось 1 раз

Создавать темы 26-Фев-2012 15:31

[Профиль]  [ЛС] 

victor0778

Стаж: 6 лет 8 месяцев

Сообщений: 1670

Симпатии: 142

видео кодек здесь другой, надо поменять

Создавать темы 26-Фев-2012 15:44

[Профиль]  [ЛС] 

DMiTRY ®

Стаж: 6 лет 5 месяцев

Сообщений: 649

Симпатии: 28

исправил,поставил по запарке... сорри

Создавать темы 26-Фев-2012 15:52

[Профиль]  [ЛС] 

Mixer City

Стаж: 6 лет 9 месяцев

Сообщений: 754

Симпатии: 63

DMiTRY, я тебе поправил тех. данные, в след. раз делай также.

Создавать темы 26-Фев-2012 16:38

[Профиль]  [ЛС] 

DMiTRY ®

Стаж: 6 лет 5 месяцев

Сообщений: 649

Симпатии: 28

DMiTRY, я тебе поправил тех. данные, в след. раз делай также.
учёл,cпасибо) буду делать так же...

Создавать темы 26-Фев-2012 18:24

[Профиль]  [ЛС] 

adham1990.04

Стаж: 6 лет 4 месяца

Сообщений: 186

скорость плиз

Создавать темы 26-Фев-2012 20:06

[Профиль]  [ЛС] 

Gargantua

Стаж: 5 лет 7 месяцев

Сообщений: 4

дайте скорости!!! пожалуйста!!!

Создавать темы 29-Фев-2012 15:42

[Профиль]  [ЛС] 

Shaxzodbek

Стаж: 2 года 1 месяц

Сообщений: 7

Симпатии: 47

Чуваки, пожалуйста, додайте 2 гига. Ну вообще невозможно скачать

Создавать темы 07-Мар-2016 16:33

[Профиль]  [ЛС] 
Показать сообщения:    
Ответить на тему

Текущее время: 18-Окт 17:54

Часовой пояс: UTC + 5



Вы не можете начинать темы
Вы не можете отвечать на сообщения
Вы не можете редактировать свои сообщения
Вы не можете удалять свои сообщения
Вы не можете голосовать в опросах
Вы не можете прикреплять файлы к сообщениям
Вы не можете скачивать файлы