Ип Ман 2 / Ip Man 2 (Вилсон Йип) [2010 г., Боевик / Биографический фильм / Исторический фильм, HDRip]

Ответить на тему
 

Kubaev_Muhiddin ®

Стаж: 6 лет 8 месяцев

Сообщений: 104

Симпатии: 34

Ип Ман 2 / Ip Man 2
Год выпуска: 2010
Страна: Гонконг, Henan Film & TV Production Group Henan Film Studio, Mandarin Films Distribution Co., Beijing ShengShi HuaRei Film Investment & Management Co.
Жанр: Боевик / Биографический фильм / Исторический фильм
Продолжительность: 01:47:50
Перевод: Профессиональный (многоголосый, закадровый)
Режиссер: Вилсон Йип
В ролях: Донни Йен, Линн Хунг, Саймон Ям, Саммо Хунг Кам-Бо, Хуан Сяомин, Фан Сю-Вонг, Кент Чэн, Даррен Шахлави, Брюс Блэйн, Эмбер Чиа
Описание: Фильм, в отличие от первой части — «Ип Ман» — удаляется значительно дальше от реальной биографии Ип Мана. В этом фильме Ип Ман выступает в качестве защитника чести китайских боевых искусств перед английским боксом.
Вторая Мировая война закончилась, но Китай все ещё слаб и беден. В 1949 году в Гонконге Ип Ман открывает школу Вин чун, однако завоевать свое место под солнцем оказывается непросто — чтобы избежать проблем, Ип Ману нужно сначала завоевать уважение представителей других кунгфу-школ, а председательствующему в их ассоциации Хун Чун Нам(мастеру стиля Хун Гар), Ип Ман не понравился с первого взгляда. Тем временем в Гонконге усиливается присутствие британцев, и некоторые из них плевать хотели на китайские традиции и обычаи…
Качество: HDRip
Формат: AVI
Видео кодек: XviD
Аудио кодек: AC3
Видео: Xvid 720x304 23.976 fps 1 475 Kbps
Аудио: Dolby AC3 48000 Hz 6ch. 448 Kbps

Медиа инфо

Video
ID : 0
Format : MPEG-4 Visual
Format profile : Advanced [email protected]
Format settings, BVOP : 3
Format settings, QPel : No
Format settings, GMC : No warppoints
Format settings, Matrix : Custom
Codec ID : XVID
Codec ID/Hint : XviD
Duration : 1h 47mn
Bit rate : 1 475 Kbps
Width : 720 pixels
Height : 304 pixels
Display aspect ratio : 2.35:1
Frame rate : 23.976 fps
Color space : YUV
Chroma subsampling : 4:2:0
Bit depth : 8 bits
Scan type : Progressive
Compression mode : Lossy
Bits/(Pixel*Frame) : 0.281
Stream size : 1.11 GiB (76%)
Writing library : XviD 56
Audio
ID : 1
Format : AC-3
Format/Info : Audio Coding 3
Mode extension : CM (complete main)
Codec ID : 2000
Duration : 1h 47mn
Bit rate mode : Constant
Bit rate : 448 Kbps
Channel(s) : 6 channels
Channel positions : Front: L C R, Side: L R, LFE
Sampling rate : 48.0 KHz
Bit depth : 16 bits
Compression mode : Lossy
Stream size : 346 MiB (23%)
Alignment : Split accross interleaves
Interleave, duration : 42 ms (1.00 video frame)
Interleave, preload duration : 500 ms

Скриншоты









Последний раз редактировалось: Kubaev_Muhiddin (2013-08-06 00:31), всего редактировалось 7 раз(а)

Создавать темы 28-Фев-2012 23:50

[Профиль]  [ЛС] 

victor0778

Стаж: 6 лет 7 месяцев

Сообщений: 1670

Симпатии: 142

Качество: BDRip-AVC, здесь максимум просто BDRip, если не HDRip

Создавать темы 29-Фев-2012 00:55

[Профиль]  [ЛС] 

Топик был перенесен из форума Зарубежное кино в форум Азиатские фильмы


victor0778

Создавать темы 29-Фев-2012 01:08

 

knyaz31337

Стаж: 6 лет 4 месяца

Сообщений: 396

Симпатии: 20

Хорошее кино, хотя я подобные фильмы не смотрю вообще (кроме Джеки естественно), но этот исключение. Кстати для тех кто в танке, Ип Ман — это реальный человек, он был истинным мастером боевых искусств, а также сенсеем самого Брюса Ли.

Создавать темы 29-Фев-2012 20:30

[Профиль]  [ЛС] 

arslan-mukatov

Стаж: 5 лет 7 месяцев

Сообщений: 74

Встаньте на раздачу пожл! И добавьте газу???!!!!!!!!

Создавать темы 11-Май-2012 00:23

[Профиль]  [ЛС] 

arslan-mukatov

Стаж: 5 лет 7 месяцев

Сообщений: 74

Kubaev_Muhiddin, пожл раздайте релиз фильма, немогу скачать доконца!!!!

Создавать темы 14-Май-2012 02:19

[Профиль]  [ЛС] 

Vlad ten

Стаж: 6 лет 4 месяца

Сообщений: 52

Дайте скорости у меня вообще не куачает уже второй день жду

Создавать темы 15-Май-2012 11:10

[Профиль]  [ЛС] 

Vlad ten

Стаж: 6 лет 4 месяца

Сообщений: 52

Заранее большое спасибо

Создавать темы 15-Май-2012 11:11

[Профиль]  [ЛС] 

sifler

Стаж: 4 года 4 месяца

Сообщений: 26

Газу плиз ))

Создавать темы 17-Июн-2013 23:41

[Профиль]  [ЛС] 

Ферузбек

Стаж: 4 года 5 месяцев

Сообщений: 3

фильм класссс...........

Создавать темы 23-Авг-2014 19:15

[Профиль]  [ЛС] 
Показать сообщения:    
Ответить на тему

Текущее время: 27-Сен 03:57

Часовой пояс: UTC + 5



Вы не можете начинать темы
Вы не можете отвечать на сообщения
Вы не можете редактировать свои сообщения
Вы не можете удалять свои сообщения
Вы не можете голосовать в опросах
Вы не можете прикреплять файлы к сообщениям
Вы не можете скачивать файлы