Неприкасаемые / Intouchables (Оливье Накаш / Olivier Nakache, Эрик Толедано / Eric Toledano) [2011 г., драма, комедия, DVDRip]

Ответить на тему
 

маток ®

Стаж: 6 лет 6 месяцев

Сообщений: 63

Симпатии: 2

Неприкасаемые / Intouchables-- Год выпуска: 2011
Страна: Франция
Жанр: драма, комедия
Продолжительность: 01:47:45
Перевод: Одноголосый закадровый |Kerob|-Режиссер: Оливье Накаш / Olivier Nakache, Эрик Толедано / Eric Toledano--В ролях: Франсуа Клюзе, Омар Сай, Анн Ле Ни, Одри Флеро, Клотильд Молле, Альба Гайя, Крагеде Беллуджи, Сирил Менди, Кристиан Амери, Грегуар Эстерманн, Жозефин де Мо--Описание: Пострадав в результате несчастного случая, богатый аристократ Филипп нанимает в помощники человека, который менее всего подходит для этой работы, — молодого жителя предместья, араба Дрисса, только что освободившегося из тюрьмы. Несмотря на то, что Филипп прикован к инвалидному креслу, Дриссу удается привнести в размеренную жизнь аристократа дух приключений.-- --Качество: DVDRip
Формат: AVI
Видео кодек: DivX
Аудио кодек: AC3
Видео: 672x368 (1.83:1), 25 fps, XviD build 63 ~869 kbps avg, 0.14 bit/pixel
Аудио: 32 kHz, AC3 Dolby Digital, 2/0 (L,R) ch, ~96 kbps

MediaInfo

General
Complete name : D:\cinema\Neprikasaemie-700..avi
Format : AVI
Format/Info : Audio Video Interleave
File size : 752 MiB
Duration : 1h 47mn
Overall bit rate : 976 Kbps
Movie name : Neprikasaemie-700.chopper887
Director : chopper887
Genre : Drama/Comedy
Writing application : VirtualDubMod 1.5.10.3 | www.virtualdub-fr.org || (build 2550/release)
Original source form/Name : Movie
Video
ID : 0
Format : MPEG-4 Visual
Format profile : Advanced [email protected]
Format settings, BVOP : 2
Format settings, QPel : No
Format settings, GMC : No warppoints
Format settings, Matrix : Custom
Codec ID : XVID
Codec ID/Hint : XviD
Duration : 1h 47mn
Bit rate : 870 Kbps
Width : 672 pixels
Height : 368 pixels
Display aspect ratio : 16:9
Frame rate : 25.000 fps
Color space : YUV
Chroma subsampling : 4:2:0
Bit depth : 8 bits
Scan type : Progressive
Compression mode : Lossy
Bits/(Pixel*Frame) : 0.141
Stream size : 670 MiB (89%)
Writing library : XviD 63
Audio
ID : 1
Format : MPEG Audio
Format version : Version 1
Format profile : Layer 3
Mode : Joint stereo
Mode extension : MS Stereo
Codec ID : 55
Codec ID/Hint : MP3
Duration : 1h 47mn
Bit rate mode : Constant
Bit rate : 96.0 Kbps
Channel(s) : 2 channels
Sampling rate : 32.0 KHz
Compression mode : Lossy
Stream size : 74.0 MiB (10%)
Alignment : Aligned on interleaves
Interleave, duration : 40 ms (1.00 video frame)
Interleave, preload duration : 504 ms
Writing library : LAME3.99r
Encoding settings : -m j -V 4 -q 2 -lowpass 15.1 -b 96

Скриншоты





Последний раз редактировалось: маток (2012-03-06 19:36), всего редактировалось 1 раз

Создавать темы 29-Фев-2012 09:01

[Профиль]  [ЛС] 

Сулейман

Стаж: 7 лет

Сообщений: 122

Жаль что перевод одноголосый=(

Создавать темы 29-Фев-2012 21:43

[Профиль]  [ЛС] 

da

Стаж: 6 лет 8 месяцев

Сообщений: 95

Симпатии: 7

Да, хороший фильм, давно подобного не смотрел. Спасибо большое!

Создавать темы 11-Мар-2012 03:32

[Профиль]  [ЛС] 

vadmin

Стаж: 7 лет

Сообщений: 70

Симпатии: 13

Soundtrack http://tas-ix.net/viewtopic.php?t=44143&spmode=full#seeders

Создавать темы 25-Мар-2012 17:18

[Профиль]  [ЛС] 

vadmin

Стаж: 7 лет

Сообщений: 70

Симпатии: 13

9 место уже на кинапоиске cb

Создавать темы 31-Мар-2012 18:57

[Профиль]  [ЛС] 

axxa

Стаж: 6 лет 9 месяцев

Сообщений: 63

Симпатии: 2

фильм супер!!!Многому научит!!Спасибо!

Создавать темы 26-Май-2012 20:52

[Профиль]  [ЛС] 

hoper

Стаж: 5 лет 6 месяцев

Сообщений: 56

Симпатии: 10

9 место уже на кинапоиске cb
Ага, уже четвертое :) Заинтересовало, начал качать...
Господа, помогите скачать, пожалуйста!

_________________
Подпись отключена за нарушение правил форума

Создавать темы 17-Сен-2012 13:08

[Профиль]  [ЛС] 

allert

Стаж: 5 лет 3 месяца

Сообщений: 33

Симпатии: 1

Фильм великолепный. Не жалею ни о времени на закачку, ни времени на просмотр. Всем рекомендую. Фильм о жизни, живой фильм! Смех сквозь слезы..

Создавать темы 14-Окт-2012 22:27

[Профиль]  [ЛС] 

funtik

Стаж: 4 года 10 месяцев

Сообщений: 92

Симпатии: 4

фильм супер по телеку смотрел не досмотрел свет вырубили!теперь ищу вот жаль только что перевод одноголосый я многоголосый смотрел(

_________________
Подпись отключена за нарушение правил форума

Создавать темы 07-Янв-2013 16:28

[Профиль]  [ЛС] 

sanchez.usmanov

Стаж: 4 года 10 месяцев

Сообщений: 42

Симпатии: 11

[#063] Неприкасаемые / Intouchables (Оливье Накаш / Эрик Толедано) [2011 г., драма, комедия, HDRip]

Создавать темы 21-Фев-2013 18:11

[Профиль]  [ЛС] 
Показать сообщения:    
Ответить на тему

Текущее время: 24-Авг 04:25

Часовой пояс: UTC + 5



Вы не можете начинать темы
Вы не можете отвечать на сообщения
Вы не можете редактировать свои сообщения
Вы не можете удалять свои сообщения
Вы не можете голосовать в опросах
Вы не можете прикреплять файлы к сообщениям
Вы не можете скачивать файлы