Оружейный барон / Lord of War (Эндрю Никкол) [2005 г., Триллер, Криминал, Драма, BDRip-720p]

Ответить на тему
 

Madnemec ®

Стаж: 7 лет 7 месяцев

Сообщений: 51

Симпатии: 12

Оружейный барон
Lord of War
Год выхода: 2005
Страна: США, Франция
Жанр:Триллер, Криминал, Драма
Продолжительность: 02:01:43
Перевод: Профессиональный (полное дублирование) [Лицензия]
Режиссер: Эндрю Никкол
В ролях: Николас Кейдж, Бриджет Мойнэан, Итан Хоук, Джаред Лето, Шейк Тухманян, Жан-Пьерр Ншанян, Джаред Бурк, Эрик Уйс, Дэвид Шамбрис, Джаспер Ленц

Описание:
Родители братьев Орловых, старшего Юрия и младшего Виталия, покинули Украину и обосновались в Америке, на Брайтон-Бич, где открыли маленький ресторанчик. Дети же не рвались идти по родительским стопам. Юрий, раздумывая, чем заниматься, пришел к выводу: самое выгодное — торговать оружием. Потому что в мире, переполненном агрессией, оружие никогда не бывает лишним. Оно нужно и родственникам, дерущимся друг с другом, и конкурирующим бандам, и враждующим государствам. Юрий Орлов, опираясь на младшего брата Виталия, быстро завоевывает свое место под солнцем и надеется в скором времени стать таким же крутым «продавцом смерти», как его кумир Симеон Вайс. Но чем выше поднимается Юрий, тем ближе к нему подбирается агент Интерпола Джек Валентайн…
Качество: BDRip
Формат: MKV
Видео кодек: AVC/H.264
Аудио кодек: AC-3
Видео: 1280x544 pixels, 2 198 Kbps, 23.976 fps
Аудио: 384 Kbps, 48.0 KHz, 6 channels

Скриншоты




Могу записать напрямую на хард, если интересно пишите в личку(фильмов есть на 2 TB)


Последний раз редактировалось: Madnemec (2012-03-08 11:26), всего редактировалось 11 раз(а)

Создавать темы 02-Мар-2012 01:35

[Профиль]  [ЛС] 

POCOMAXA

Стаж: 6 лет 8 месяцев

Сообщений: 9

Хороший фильм

Создавать темы 04-Мар-2012 20:23

[Профиль]  [ЛС] 

POCOMAXA

Стаж: 6 лет 8 месяцев

Сообщений: 9

Как скачать????????????????????????????????????????????????????????????????????77

Создавать темы 04-Мар-2012 20:26

[Профиль]  [ЛС] 

victor0778

Стаж: 6 лет 10 месяцев

Сообщений: 1670

Симпатии: 142

скриншоты и постер?

Создавать темы 07-Мар-2012 08:10

[Профиль]  [ЛС] 

Madnemec ®

Стаж: 7 лет 7 месяцев

Сообщений: 51

Симпатии: 12

victor0778,
Посмотри коды, сделав правку сам, там и постер есть и скрины

Создавать темы 07-Мар-2012 12:37

[Профиль]  [ЛС] 

Madnemec ®

Стаж: 7 лет 7 месяцев

Сообщений: 51

Симпатии: 12

Сайт гонит ващпе, посмотри что стало с моей квадрологией сумерок)

Создавать темы 07-Мар-2012 12:37

[Профиль]  [ЛС] 

victor0778

Стаж: 6 лет 10 месяцев

Сообщений: 1670

Симпатии: 142

Madnemec, такое бывает но это не значит что надо не доделывать. Релизёры потихоньку приводят свои релизы в порядок. Прочти тут Релизы - хостинги изображений

Создавать темы 07-Мар-2012 15:30

[Профиль]  [ЛС] 

Madnemec ®

Стаж: 7 лет 7 месяцев

Сообщений: 51

Симпатии: 12

victor0778,
Готово

Создавать темы 07-Мар-2012 21:52

[Профиль]  [ЛС] 

Дмитриев

Стаж: 7 лет 6 месяцев

Сообщений: 139

Симпатии: 12

Медиа Инфо

Format : Matroska
Format version : Version 2
File size : 2.19 GiB
Duration : 2h 1mn
Overall bit rate mode : Variable
Overall bit rate : 2 574 Kbps
Movie name : Rip by PunisheR [nolimits-team.ru]
Encoded date : UTC 2011-01-19 23:19:52
Writing application : mkvmerge v3.2.0 ('Beginnings') built on Feb 12 2010 16:46:17
Writing library : libebml v0.7.9 + libmatroska v0.8.1
Video
ID : 2
Format : AVC
Format/Info : Advanced Video Codec
Format profile : [email protected]
Format settings, CABAC : Yes
Format settings, ReFrames : 3 frames
Codec ID : V_MPEG4/ISO/AVC
Duration : 2h 1mn
Bit rate mode : Variable
Bit rate : 2 198 Kbps
Maximum bit rate : 17.5 Mbps
Width : 1 280 pixels
Height : 532 pixels
Display aspect ratio : 2.40:1
Frame rate : 23.976 fps
Color space : YUV
Chroma subsampling : 4:2:0
Bit depth : 8 bits
Scan type : Progressive
Bits/(Pixel*Frame) : 0.135
Stream size : 1.82 GiB (83%)
Title : Lord.of.War.[nolimits-team]
Writing library : x264 core 112 r1867 22bfd31
Encoding settings : cabac=1 / ref=1 / deblock=1:0:0 / analyse=0x3:0x3 / me=dia / subme=1 / psy=1 / psy_rd=0.00:0.00 / mixed_ref=0 / me_range=16 / chroma_me=1 / trellis=0 / 8x8dct=1 / cqm=0 / deadzone=21,11 / fast_pskip=1 / chroma_qp_offset=0 / threads=6 / sliced_threads=0 / slices=4 / nr=0 / decimate=1 / interlaced=0 / constrained_intra=0 / bframes=3 / b_pyramid=1 / b_adapt=1 / b_bias=0 / direct=1 / weightb=1 / open_gop=0 / weightp=1 / keyint=24 / keyint_min=1 / scenecut=40 / intra_refresh=0 / rc_lookahead=0 / rc=abr / mbtree=0 / bitrate=2198 / ratetol=1.0 / qcomp=0.60 / qpmin=0 / qpmax=51 / qpstep=4 / vbv_maxrate=17500 / vbv_bufsize=14500 / nal_hrd=vbr / ip_ratio=1.10 / pb_ratio=1.10 / aq=1:1.00
Language : English
Default : Yes
Forced : No
Audio
ID : 1
Format : AC-3
Format/Info : Audio Coding 3
Mode extension : CM (complete main)
Codec ID : A_AC3
Duration : 2h 1mn
Bit rate mode : Constant
Bit rate : 384 Kbps
Channel(s) : 6 channels
Channel positions : Front: L C R, Side: L R, LFE
Sampling rate : 48.0 KHz
Bit depth : 16 bits
Compression mode : Lossy
Stream size : 334 MiB (15%)
Title : Dub
Language : Russian
Default : Yes
Forced : No

Создавать темы 07-Мар-2012 23:25

[Профиль]  [ЛС] 

slaiderUZ

Стаж: 5 лет 11 месяцев

Сообщений: 172

Симпатии: 6

есть на английском??

_________________
Подпись отключена за нарушение правил форума

Создавать темы 22-Июл-2012 12:32

[Профиль]  [ЛС] 

elyorjon

Стаж: 5 лет 3 месяца

Сообщений: 1

Madnemec, mne nujen orujeyniy baron pomogite skachat

Создавать темы 31-Мар-2013 15:07

[Профиль]  [ЛС] 

SeabiscuiT

Стаж: 4 года 9 месяцев

Сообщений: 56

Симпатии: 4

респект автору и сидам за фильм и скорость...было бы не плохо еще и оригинальную озвучку...

Создавать темы 18-Фев-2014 10:42

[Профиль]  [ЛС] 

mantana92

Стаж: 4 года 6 месяцев

Сообщений: 16

ну дай скорости ,пожалуйста

Создавать темы 25-Июн-2017 03:17

[Профиль]  [ЛС] 
Показать сообщения:    
Ответить на тему

Текущее время: 14-Дек 18:02

Часовой пояс: UTC + 5



Вы не можете начинать темы
Вы не можете отвечать на сообщения
Вы не можете редактировать свои сообщения
Вы не можете удалять свои сообщения
Вы не можете голосовать в опросах
Вы не можете прикреплять файлы к сообщениям
Вы не можете скачивать файлы