Сын маски / Son of the Mask (Лоуренс Гутерман) [2005 г., Фэнтези / Комедия / Приключения / Семейный, DVDRip]

Ответить на тему
 

Kubaev_Muhiddin ®

Стаж: 6 лет 6 месяцев

Сообщений: 104

Симпатии: 34

Сын маски / Son of the Mask
Год выпуска: 2005
Страна: США, Германия, Австралия
Жанр: Фэнтези / Комедия / Приключения / Семейный
Продолжительность: 01:32:00
Перевод: профессиональный (многоголосый, закадровый)
Режиссер: Лоуренс Гутерман
Продюссер: Эрика Хаггинс, Скотт Крупф, Кент Альтерман
Сценарий: Лэнс Казей
Бюджет: 84 000 000 $
Премьера в мире: 11 февраля 2005
В ролях: Джейми Кеннеди, Алан Камминг, Лайам Фалконер, Райан Фалконер, Трейлор Ховард, Стивен Райт, Кэл Пенн, Бен Стайн, Бретт Пикап, Питер Каллэн
Описание: Маска возвращается. Десятилетие спустя легендарная Маска Локи попадает в руки карикатуриста Тима Эвери, чей новорожденный сын имеет сверхъестественные способности. Малыш напару с собакой испытывают фантастические способности Маски, переворочивая дом вверх дном. Но настоящие проблемы возникают, когда сам Локи, бог озорства, отправляется на поиски магической Маски, готовый на все, чтобы вернуть ее себе…
Рекомендуется присутствие родителей
Доп. информация: Сборы в США: 17 018 422 $
Сборы в мире: + 40 534 165 $ = $57 552 587
Сборы в России: 1 900 000 $
Качество: DVDRip
Формат: AVI
Видео кодек: DivX
Аудио кодек: AC-3 2000
Видео: Xvid 720x400 25 fps 1 815 kbps
Аудио: Dolby AC3 48000 Hz 6ch. 448 kbps

Медиа инфо

Video
ID : 0
Format : MPEG-4 Visual
Format profile : Advanced [email protected]
Format settings, BVOP : 1
Format settings, QPel : No
Format settings, GMC : No warppoints
Format settings, Matrix : Custom
Codec ID : XVID
Codec ID/Hint : XviD
Duration : 1h 32mn
Bit rate : 1 815 Kbps
Width : 720 pixels
Height : 400 pixels
Display aspect ratio : 16:9
Frame rate : 25.000 fps
Color space : YUV
Chroma subsampling : 4:2:0
Bit depth : 8 bits
Scan type : Progressive
Compression mode : Lossy
Bits/(Pixel*Frame) : 0.252
Stream size : 1.17 GiB (80%)
Writing library : XviD 1.1.2 (UTC 2006-11-01)
Audio
ID : 1
Format : AC-3
Format/Info : Audio Coding 3
Mode extension : CM (complete main)
Codec ID : 2000
Duration : 1h 31mn
Bit rate mode : Constant
Bit rate : 448 Kbps
Channel(s) : 6 channels
Channel positions : Front: L C R, Side: L R, LFE
Sampling rate : 48.0 KHz
Bit depth : 16 bits
Compression mode : Lossy
Stream size : 295 MiB (20%)
Alignment : Split accross interleaves
Interleave, duration : 96 ms (2.40 video frames)
Interleave, preload duration : 96 ms

Скриншоты







Последний раз редактировалось: Kubaev_Muhiddin (2013-09-23 16:24), всего редактировалось 2 раз(а)

Создавать темы 08-Мар-2012 09:38

[Профиль]  [ЛС] 

shavkatjon

Стаж: 5 лет 7 месяцев

Сообщений: 10

spasiba

Создавать темы 10-Мар-2012 13:12

[Профиль]  [ЛС] 

kozimbek.0k

Стаж: 6 лет 3 месяца

Сообщений: 109

Симпатии: 7

илтимос тезлик

Создавать темы 20-Мар-2012 19:10

[Профиль]  [ЛС] 

Руслан

Стаж: 7 лет 8 месяцев

Сообщений: 166

Симпатии: 2

у кого есть с лицензией, залейте плиз. классный фильм!

Создавать темы 15-Май-2012 16:31

[Профиль]  [ЛС] 

lol1

Стаж: 3 года 9 месяцев

Сообщений: 30

Симпатии: 1

огромное спасибо

Создавать темы 16-Янв-2015 20:15

[Профиль]  [ЛС] 

vladimirgsm

Стаж: 3 года 9 месяцев

Сообщений: 40

Симпатии: 3

на раздаче двое , а раздаёт один и по копейке в минуту и такая ситуация
каждый день , это не есть хорошо , просьба дайте докачать, а то приходится новеньким раздавать
на всю катушку , а другие раздачи заблокировать.

Создавать темы 18-Янв-2015 18:30

[Профиль]  [ЛС] 

pulot

Стаж: 1 год 5 месяцев

Сообщений: 3

помогите скачать пожалуйста

Создавать темы 19-Июл-2016 13:27

[Профиль]  [ЛС] 
Показать сообщения:    
Ответить на тему

Текущее время: 20-Авг 05:20

Часовой пояс: UTC + 5



Вы не можете начинать темы
Вы не можете отвечать на сообщения
Вы не можете редактировать свои сообщения
Вы не можете удалять свои сообщения
Вы не можете голосовать в опросах
Вы не можете прикреплять файлы к сообщениям
Вы не можете скачивать файлы