Как украсть небоскреб / Tower Heist (Бретт Рэтнер) [2011 г., комедия, криминал, BDRip 720р]

Ответить на тему
 

ziyod ®

Стаж: 7 лет 5 месяцев

Сообщений: 367

Симпатии: 60

Как украсть небоскреб
Tower Heist
-«Вся власть народу. И деньги тоже.»
-Информация о фильме:
Год выпуска: 2011
Страна: США
Жанр: комедия, криминал
Продолжительность: 104 мин. / 01:44:33
Перевод: Профессиональный (полное дублирование)
Режиссер: Бретт Рэтнер-Продюссер: Брайан Грейзер, Эдди Мёрфи, Билл Карраро
Сценарий: Тед Гриффин, Джефф Натансон, Адам Купер
Бюджет: $75 000 000
Премьера в мире: 24 октября 2011-В ролях: Бен Стиллер, Эдди Мёрфи, Кейси Аффлек, Алан Алда, Мэттью Бродерик, Теа Леони, Майкл Пенья, Габури «Гэбби» Сидибе, Стефен Хендерсон, Джадд Хёрш-Описание: Джошу Ковачу не повезло — его поимел злобный финансист, живущий в роскошных апартаментах на верхнем этаже небоскреба. Чтобы вернуть деньги, Джош с друзьями решается на грандиозную кражу со взломом. Но одним им это не под силу, и они обращаются к матерому преступнику. Дело за малым — шесть новоявленных друзей Джоушена должны пробраться в пентхаус и отыскать 20 миллионов долларов.-Рейтинг:
PG-13 - Детям до 13 лет просмотр не желателен
 
-Файл:
Качество: BDRip
Формат: MKV
Видео кодек: H.26x
Аудио кодек: AC3
Видео: 1280x536, 4474 kb/s
Аудио: 384 kb/s (6 ch
Субтитры: English-

MI

General
Unique ID                                : 177407302164723539630933125390524686584 (0x8577674FA7DC1713AED5E9C2C71720F8)
Complete name                            : Kak.ukrast.neboskreb.2011.D.BDRip.720p.mkv
Format                                   : Matroska
Format version                           : Version 2
File size                                : 3.55 GiB
Duration                                 : 1h 44mn
Overall bit rate                         : 4 858 Kbps
Movie name                               : Ромовый дневник / The Rum Diary (2011) BDRip 720p - firebit.org
Encoded date                             : UTC 2012-03-07 03:56:26
Writing application                      : mkvmerge v4.0.0 ('The Stars were mine') сборка от Jun  6 2010 16:18:42
Writing library                          : libebml v1.0.0 + libmatroska v1.0.0
Video
ID                                       : 1
Format                                   : AVC
Format/Info                              : Advanced Video Codec
Format profile                           : [email protected]
Format settings, CABAC                   : Yes
Format settings, ReFrames                : 5 frames
Codec ID                                 : V_MPEG4/ISO/AVC
Duration                                 : 1h 44mn
Bit rate                                 : 4 474 Kbps
Width                                    : 1 280 pixels
Height                                   : 536 pixels
Display aspect ratio                     : 2.40:1
Frame rate                               : 23.976 fps
Color space                              : YUV
Chroma subsampling                       : 4:2:0
Bit depth                                : 8 bits
Scan type                                : Progressive
Bits/(Pixel*Frame)                       : 0.272
Stream size                              : 3.20 GiB (90%)
Writing library                          : x264 core 120 r2146 bcd41db
Encoding settings                        : cabac=1 / ref=5 / deblock=1:0:0 / analyse=0x3:0x113 / me=umh / subme=8 / psy=1 / psy_rd=1.00:0.00 / mixed_ref=1 / me_range=16 / chroma_me=1 / trellis=1 / 8x8dct=1 / cqm=0 / deadzone=21,11 / fast_pskip=1 / chroma_qp_offset=-2 / threads=12 / sliced_threads=0 / nr=0 / decimate=1 / interlaced=0 / bluray_compat=0 / constrained_intra=0 / bframes=3 / b_pyramid=2 / b_adapt=2 / b_bias=0 / direct=3 / weightb=1 / open_gop=0 / weightp=2 / keyint=240 / keyint_min=24 / scenecut=40 / intra_refresh=0 / rc_lookahead=50 / rc=2pass / mbtree=1 / bitrate=4474 / ratetol=1.0 / qcomp=0.60 / qpmin=0 / qpmax=69 / qpstep=4 / cplxblur=20.0 / qblur=0.5 / ip_ratio=1.40 / aq=1:1.00
Language                                 : English
Default                                  : No
Forced                                   : No
Audio
ID                                       : 2
Format                                   : AC-3
Format/Info                              : Audio Coding 3
Mode extension                           : CM (complete main)
Codec ID                                 : A_AC3
Duration                                 : 1h 44mn
Bit rate mode                            : Constant
Bit rate                                 : 384 Kbps
Channel(s)                               : 6 channels
Channel positions                        : Front: L C R, Side: L R, LFE
Sampling rate                            : 48.0 KHz
Bit depth                                : 16 bits
Compression mode                         : Lossy
Delay relative to video                  : 6ms
Stream size                              : 287 MiB (8%)
Language                                 : Russian
Default                                  : No
Forced                                   : No
Text
ID                                       : 3
Format                                   : UTF-8
Codec ID                                 : S_TEXT/UTF8
Codec ID/Info                            : UTF-8 Plain Text
Language                                 : English
Default                                  : No
Forced                                   : No
Menu
00:00:00.000                             : en:00:00:00.000
00:03:23.203                             : en:00:03:23.203
00:09:20.810                             : en:00:09:20.810
00:14:09.599                             : en:00:14:09.599
00:19:13.778                             : en:00:19:13.778
00:23:41.503                             : en:00:23:41.503
00:27:16.468                             : en:00:27:16.468
00:32:05.549                             : en:00:32:05.549
00:38:16.377                             : en:00:38:16.377
00:43:57.260                             : en:00:43:57.260
00:49:20.541                             : en:00:49:20.541
00:53:42.594                             : en:00:53:42.594
00:56:58.582                             : en:00:56:58.582
01:01:46.995                             : en:01:01:46.995
01:06:22.687                             : en:01:06:22.687
01:11:30.161                             : en:01:11:30.161
01:17:13.504                             : en:01:17:13.504
01:23:09.568                             : en:01:23:09.568
01:31:52.257                             : en:01:31:52.257
01:38:42.125                             : en:01:38:42.125
-

==>СКРИНШОТЫ<==



Последний раз редактировалось: ziyod (2012-03-28 06:24), всего редактировалось 1 раз

Создавать темы 08-Мар-2012 17:55

[Профиль]  [ЛС] 

yuragreek

Стаж: 6 лет 6 месяцев

Сообщений: 125

Симпатии: 3

Спасибо Автор!!! Буду Качать!!!

Создавать темы 09-Мар-2012 01:27

[Профиль]  [ЛС] 

ShPioN

Стаж: 6 лет 7 месяцев

Сообщений: 55

Симпатии: 3

Movie name : Ромовый дневник / The Rum Diary (2011) BDRip 720p - firebit.org
малость вводит в заблуждение :) я аж 4 раза перепроверил, то ли я скачал...

Создавать темы 16-Мар-2012 16:59

[Профиль]  [ЛС] 

ziyod ®

Стаж: 7 лет 5 месяцев

Сообщений: 367

Симпатии: 60

Ромовый дневник / The Rum Diary (2011) BDRip 720p - firebit.org
bv косяк mkvmerge GUI

Создавать темы 16-Мар-2012 17:23

[Профиль]  [ЛС] 

Potroshitel

Стаж: 5 лет 6 месяцев

Сообщений: 47

Народ че такое я 87% скачал а дальше не качает пожалуста помогите!!!!!!

Создавать темы 02-Апр-2012 07:52

[Профиль]  [ЛС] 

rstm

Стаж: 5 лет 5 месяцев

Сообщений: 1

99% скачал уже месяц, 1% не могу скачать почему?

Создавать темы 21-Апр-2012 13:55

[Профиль]  [ЛС] 
Показать сообщения:    
Ответить на тему

Текущее время: 24-Авг 09:47

Часовой пояс: UTC + 5



Вы не можете начинать темы
Вы не можете отвечать на сообщения
Вы не можете редактировать свои сообщения
Вы не можете удалять свои сообщения
Вы не можете голосовать в опросах
Вы не можете прикреплять файлы к сообщениям
Вы не можете скачивать файлы