Выжить любой ценой: 6 сезон / Серии 1-3 (6) [2011 г., документальный, HDTVRip]

Ответить на тему
 

inviz ®

Стаж: 6 лет

Сообщений: 153

Симпатии: 6

Выжить любой ценой: 6 сезон / Серии 1-3 (6)/ Ultimate Survival: 6 Season /Man vs Wild (Discovery)
Год выпуска: 2011
Страна: США, Великобритания
Жанр: Документальный
Продолжительность: ~ 43 минуты серия
Режиссёр: Майк Уорнер, Скотт Танкард
В ролях: Беар Гриллс
Описание: Беар служил в спецназе S.A.S является экспертом по выживанию в экстремальных природных условиях. В этих фильмах он покажет как надо выживать, какие опасности таит в себе природа. Беар покажет навыки выживания самым экстремальным образом. Его выкидывают из вертолета с высоты 2000 метров и кроме парашюта у него есть при себе только нож и огниво. Он должен найти пищу, воду, направление движения, укрытие. На пути Беара будут вставать: скорпионы, каракурты, кобры, носороги, пираньи, акулы, слоны, медведи, львы, а также нестерпимый холод и адская жара.

Качество:HDTVRip
Формат:AVI
Видео кодек: XviD
Аудио кодек: AC3
Видео: 720x400(16:9), 29.970 fps, 1300 kbps, ~0.150 bit/pixel
Аудио: 48 kHz, 2ch, 448.00 kbps

Список эпизодов

01. Аризона / Arizona
02. Шотландия / Scotland
03. Норвегия / Norway

MI

Общее
Полное имя : F:\Ultimate Survival - Выжить любой ценой (6 Сезон)\Ultimate.Survival.s06.e01.XviD.HDTVRip.avi
Формат : AVI
Формат/Информация : Audio Video Interleave
Размер файла : 544 Мбайт
Продолжительность : 43 м.
Общий поток : 1756 Кбит/сек
Программа кодирования : VirtualDubMod 1.5.10.2 (build 2540/release)
Библиотека кодирования : VirtualDubMod build 2540/release
Видео
Идентификатор : 0
Формат : MPEG-4 Visual
Профиль формата : Advanced [email protected]
Параметр BVOP формата : 2
Параметр QPel формата : Нет
Параметр GMC формата : Без точки перехода
Параметр матрицы формата : Default (MPEG)
Идентификатор кодека : XVID
Идентификатор кодека/Подсказка : XviD
Продолжительность : 43 м.
Битрейт : 1297 Кбит/сек
Ширина : 720 пикс.
Высота : 400 пикс.
Соотношение сторон : 16:9
Частота кадров : 29,970 кадр/сек
Цветовое пространство : YUV
Подвыборка цветности : 4:2:0
Битовая глубина : 8 бит
Тип развёртки : Прогрессивная
Метод сжатия : С потерями
Бит/(Пиксели*Кадры) : 0.150
Размер потока : 402 Мбайт (74%)
Библиотека кодирования : XviD 1.2.0.dev47 (UTC 2006-11-01)
Аудио
Идентификатор : 1
Формат : AC-3
Формат/Информация : Audio Coding 3
Расширение режима : CM (complete main)
Идентификатор кодека : 2000
Продолжительность : 43 м.
Вид битрейта : Постоянный
Битрейт : 448 Кбит/сек
Каналы : 2 канала
Расположение каналов : Front: L R
Частота : 48,0 КГц
Битовая глубина : 16 бит
Метод сжатия : С потерями
Размер потока : 139 Мбайт (26%)
Выравнивание : Разделение по промежуткам
Продолжительность промежутка : 33 мс. (1,00 видеокадр)
Время предзагрузки промежутка : 500 ms

Скриншоты





Создавать темы 08-Мар-2012 20:10

[Профиль]  [ЛС] 

inviz ®

Стаж: 6 лет

Сообщений: 153

Симпатии: 6

На раздаче

Создавать темы 23-Мар-2012 23:20

[Профиль]  [ЛС] 

Resty

Стаж: 6 лет 9 месяцев

Сообщений: 26

Симпатии: 1

До чего же убогая скорость, ребят раздавайте плиз хотябы в определенное время суток. Сериал супер, Беар Гриллс просто крут.

Создавать темы 25-Мар-2012 20:17

[Профиль]  [ЛС] 

inviz ®

Стаж: 6 лет

Сообщений: 153

Симпатии: 6

До чего же убогая скорость, ребят раздавайте плиз хотябы в определенное время суток. Сериал супер, Беар Гриллс просто крут.
Во во)) Будет время ещё накачаю.

Создавать темы 27-Мар-2012 22:45

[Профиль]  [ЛС] 
Показать сообщения:    
Ответить на тему

Текущее время: 23-Ноя 19:45

Часовой пояс: UTC + 5



Вы не можете начинать темы
Вы не можете отвечать на сообщения
Вы не можете редактировать свои сообщения
Вы не можете удалять свои сообщения
Вы не можете голосовать в опросах
Вы не можете прикреплять файлы к сообщениям
Вы не можете скачивать файлы