Свободные / Footloose (Крэйг Брюэр / Craig Brewer) [2011 г., драма, комедия, музыка, HDRip] DUB + Original ENG

Ответить на тему
 

Pendalf ®

Стаж: 6 лет 5 месяцев

Сообщений: 416

Симпатии: 34

"Свободные"
"Footloose"-«This is our time» Год выпуска: 2011
Страна: США
Жанр: драма, комедия, музыка
Продолжительность: 01:53:15

-
Перевод: Профессиональный (Дублированный) || Лицензия
-
Режиссер: Крэйг Брюэр / Craig Brewer
В ролях: Кенни Вормолд / Kenny Wormald (Ren MacCormack), Джулианна Хаф / Julianne Hough (Ariel Moore), Деннис Куэйд / Dennis Quaid (Rev. Shaw Moore), Энди МакДауэлл / Andie MacDowell (Vi Moore), Майлз Теллер / Miles Teller (Willard), Рэй МакКиннон / Ray McKinnon (Wes Warnicker), Патрик Флюгер / Patrick Flueger (Chuck Cranston), Ким Диккенс / Kim Dickens (Lulu), Зиа Колон / Ziah Colon (Rusty), Сер'Дариус Блейн / Ser'Darius Blain (Woody), Л. Уоррен Янг / L. Warren Young (Andy Beamis), Бретт Райс / Brett Rice (Roger Dunbar)

-
Описание: Рен МакКормак переезжает с семьей из мегаполиса в тихий провинциальный городок, в котором запрещены рок-музыка и танцы. Заручившись поддержкой своего приятеля и юной возлюбленной, герой решает изменить старомодные порядки, установленные преподобным отцом Муром, и заставить благочестивых горожан «тряхнуть стариной». Доп. информация:
  Качество: HDRip
Формат: AVI
Видео кодек: XviD
Аудио кодек: AC3
Видео: XviD / 720 x 304 / 2.35:1 / 1700 kbps / 23,976 fps
Аудио #1: AC3 Dolby Digital / 48 KHz / 448 kbps / 3/2 (L,C,R,l,r) + LFE ch [RUS]
Аудио #2: AC3 Dolby Digital / 48 KHz / 448 kbps / 3/2 (L,C,R,l,r) + LFE ch [ENG]

MediaInfo

General
Complete name : F:\Svobodnie.2011.D.HDRip.2100Mb.avi
Format : AVI
Format/Info : Audio Video Interleave
File size : 2.07 GiB
Duration : 1h 53mn
Overall bit rate : 2 610 Kbps
Writing application : VirtualDubMod 1.5.10.2 (build 2540/release)
Writing library : VirtualDubMod build 2540/release
Video
ID : 0
Format : MPEG-4 Visual
Format profile : Advanced [email protected]
Format settings, BVOP : 2
Format settings, QPel : No
Format settings, GMC : No warppoints
Format settings, Matrix : Default (H.263)
Codec ID : XVID
Codec ID/Hint : XviD
Duration : 1h 53mn
Bit rate : 1 700 Kbps
Width : 720 pixels
Height : 304 pixels
Display aspect ratio : 2.35:1
Frame rate : 23.976 fps
Color space : YUV
Chroma subsampling : 4:2:0
Bit depth : 8 bits
Scan type : Progressive
Compression mode : Lossy
Bits/(Pixel*Frame) : 0.324
Stream size : 1.35 GiB (65%)
Writing library : XviD 1.2.1 (UTC 2008-12-04)
Audio #1
ID : 1
Format : AC-3
Format/Info : Audio Coding 3
Mode extension : CM (complete main)
Codec ID : 2000
Duration : 1h 53mn
Bit rate mode : Constant
Bit rate : 448 Kbps
Channel(s) : 6 channels
Channel positions : Front: L C R, Side: L R, LFE
Sampling rate : 48.0 KHz
Bit depth : 16 bits
Compression mode : Lossy
Stream size : 363 MiB (17%)
Alignment : Split accross interleaves
Interleave, duration : 42 ms (1.00 video frame)
Interleave, preload duration : 500 ms
Audio #2
ID : 2
Format : AC-3
Format/Info : Audio Coding 3
Mode extension : CM (complete main)
Codec ID : 2000
Duration : 1h 53mn
Bit rate mode : Constant
Bit rate : 448 Kbps
Channel(s) : 6 channels
Channel positions : Front: L C R, Side: L R, LFE
Sampling rate : 48.0 KHz
Bit depth : 16 bits
Compression mode : Lossy
Stream size : 363 MiB (17%)
Alignment : Split accross interleaves
Interleave, duration : 42 ms (1.00 video frame)
Interleave, preload duration : 500 ms

Скриншоты



Создавать темы 09-Мар-2012 11:56

[Профиль]  [ЛС] 

RedBull

Стаж: 6 лет 7 месяцев

Сообщений: 185

Симпатии: 4

Фильм про танцы?

Создавать темы 09-Мар-2012 12:43

[Профиль]  [ЛС] 

victor0778

Стаж: 6 лет 9 месяцев

Сообщений: 1670

Симпатии: 142

Фильм про танцы?
да нападобе фильма Грязные танцы

Создавать темы 09-Мар-2012 12:55

[Профиль]  [ЛС] 

chester 11

Стаж: 6 лет 4 месяца

Сообщений: 110

Симпатии: 5

надо посмотреть !!!

Создавать темы 09-Мар-2012 15:19

[Профиль]  [ЛС] 

MutagenHC

Стаж: 5 лет 10 месяцев

Сообщений: 3

помогу с раздачей

Создавать темы 09-Мар-2012 17:17

[Профиль]  [ЛС] 

yuragreek

Стаж: 6 лет 9 месяцев

Сообщений: 125

Симпатии: 3

Спасибо Автору!!!

Создавать темы 10-Мар-2012 16:47

[Профиль]  [ЛС] 

RedBull

Стаж: 6 лет 7 месяцев

Сообщений: 185

Симпатии: 4

Фильм кулл обновление старого хороший фильм,старый тоже прикольный спасибо

Создавать темы 10-Мар-2012 21:33

[Профиль]  [ЛС] 

Valik

Стаж: 5 лет 8 месяцев

Сообщений: 9

Мне понравился Спасибо большое Филеем проста класс)))

Создавать темы 13-Мар-2012 16:58

[Профиль]  [ЛС] 

Ahmadjon

Стаж: 6 лет 10 месяцев

Сообщений: 10

Симпатии: 1

А Английский Subtitle где???

Создавать темы 27-Мар-2012 11:26

[Профиль]  [ЛС] 

bagesh

Стаж: 7 лет 6 месяцев

Сообщений: 45

хороший фильм

Создавать темы 05-Апр-2012 13:25

[Профиль]  [ЛС] 

Sn1PeR

Стаж: 5 лет 10 месяцев

Сообщений: 25

Дайте скорость плиз

Создавать темы 06-Окт-2012 11:01

[Профиль]  [ЛС] 

monstr1995

Стаж: 6 лет 6 месяцев

Сообщений: 25

Скорости пожалуста

Создавать темы 06-Окт-2012 22:13

[Профиль]  [ЛС] 

ache

Стаж: 5 лет 1 месяц

Сообщений: 11

дайте скорости по больше пожалуйста

Создавать темы 31-Окт-2012 21:40

[Профиль]  [ЛС] 
Показать сообщения:    
Ответить на тему

Текущее время: 23-Ноя 12:41

Часовой пояс: UTC + 5



Вы не можете начинать темы
Вы не можете отвечать на сообщения
Вы не можете редактировать свои сообщения
Вы не можете удалять свои сообщения
Вы не можете голосовать в опросах
Вы не можете прикреплять файлы к сообщениям
Вы не можете скачивать файлы