Don Frye vs. Yoshihiro Takayama [2002 г., Mixed Martial Arts (MMA), TVRip]

Ответить на тему
 

Сарвар ®

Стаж: 5 лет 9 месяцев

Сообщений: 20

Don Frye vs. Yoshihiro Takayama- -Год выпуска: 2002
Вид спорта: Mixed Martial Arts (MMA)
Участники: Don Frye vs. Yoshihiro Takayama
Продолжительность: 00:01:52
Комментарий: Профессиональный (одноголосый)
Язык комментариев: Английский-Описание: Отличный бой между Don Frye и Yoshihiro Takayama, состоявшийся 23.06.2002-Качество: TVRip
Формат: FLV
Видео кодек: AVC
Аудио кодек: AAC
Видео: 640х360, 25fps, 594 Kbps
Аудио: 22.05 KHz, 2ch (stereo), 76.0 Kbps

MediaInfo

Format : MPEG-4
Format profile : Base Media
Codec ID : isom
File size : 8.83 MiB
Duration : 1mn 52s
Overall bit rate mode : Variable
Overall bit rate : 660 Kbps
Writing application : Lavf53.3.1
Video
ID : 1
Format : AVC
Format/Info : Advanced Video Codec
Format profile : [email protected]
Format settings, CABAC : Yes
Format settings, ReFrames : 4 frames
Codec ID : avc1
Codec ID/Info : Advanced Video Coding
Duration : 1mn 52s
Bit rate : 594 Kbps
Width : 640 pixels
Height : 360 pixels
Display aspect ratio : 16:9
Frame rate mode : Constant
Frame rate : 25.000 fps
Color space : YUV
Chroma subsampling : 4:2:0
Bit depth : 8 bits
Scan type : Progressive
Bits/(Pixel*Frame) : 0.103
Stream size : 7.76 MiB (88%)
Writing library : x264 core 115 r1995 c1e60b9
Encoding settings : cabac=1 / ref=3 / deblock=1:0:0 / analyse=0x3:0x113 / me=hex / subme=7 / psy=1 / psy_rd=1.00:0.00 / mixed_ref=1 / me_range=16 / chroma_me=1 / trellis=1 / 8x8dct=1 / cqm=0 / deadzone=21,11 / fast_pskip=1 / chroma_qp_offset=-2 / threads=4 / sliced_threads=0 / nr=0 / decimate=1 / interlaced=0 / bluray_compat=0 / constrained_intra=0 / bframes=3 / b_pyramid=2 / b_adapt=1 / b_bias=0 / direct=1 / weightb=0 / open_gop=1 / weightp=2 / keyint=25 / keyint_min=13 / scenecut=40 / intra_refresh=0 / rc_lookahead=25 / rc=abr / mbtree=1 / bitrate=594 / ratetol=1.0 / qcomp=0.60 / qpmin=10 / qpmax=69 / qpstep=4 / ip_ratio=1.41 / aq=1:1.00
Audio
ID : 2
Format : AAC
Format/Info : Advanced Audio Codec
Format profile : LC
Codec ID : 40
Duration : 1mn 52s
Bit rate mode : Variable
Bit rate : 76.0 Kbps
Maximum bit rate : 96.0 Kbps
Channel(s) : 2 channels
Channel positions : Front: L R
Sampling rate : 22.05 KHz
Compression mode : Lossy
Stream size : 1.01 MiB (11%)

Скриншоты





Последний раз редактировалось: Сарвар (2012-03-10 10:09), всего редактировалось 4 раз(а)

Создавать темы 09-Мар-2012 21:27

[Профиль]  [ЛС] 

Сарвар ®

Стаж: 5 лет 9 месяцев

Сообщений: 20

Пачиму Пишыт не проверино ктонибуть Патскажыте как правильно создать новую тему раздачу bu :nf: bc

Создавать темы 09-Мар-2012 21:38

[Профиль]  [ЛС] 

Pendalf

Стаж: 6 лет 4 месяца

Сообщений: 416

Симпатии: 34

  • Добавьте тех. данные:
    Качество, видео кодек здесь, наверняка, не тот, что вы указали. Также добавьте битрейт и разрешение видео; битрейт и количество каналов аудио.
  • Сделайте минимум три скриншота с разрешением, как у исходного файла-На исправление два дня!
  • Создавать темы 10-Мар-2012 01:07

    [Профиль]  [ЛС] 

    Сарвар ®

    Стаж: 5 лет 9 месяцев

    Сообщений: 20

  • Добавьте тех. данные:
    Качество, видео кодек здесь, наверняка, не тот, что вы указали. Также добавьте битрейт и разрешение видео; битрейт и количество каналов аудио.
  • Сделайте минимум три скриншота с разрешением, как у исходного файла-На исправление два дня!
  • Атеперь Всё Зделал как вы сказали тепер правильна ? я спомыщю Medio info это узнал

    Создавать темы 10-Мар-2012 08:09

    [Профиль]  [ЛС] 

    Pendalf

    Стаж: 6 лет 4 месяца

    Сообщений: 416

    Симпатии: 34

    Сарвар, отчет Медиа Инфо добавьте. И постер добавьте, а скриншоты под спойлер

    Создавать темы 10-Мар-2012 09:49

    [Профиль]  [ЛС] 

    Сарвар ®

    Стаж: 5 лет 9 месяцев

    Сообщений: 20

    Спасибо я тоже щас падумал что лутше весь отчот медиа инфо вылажыть а скришоты под сполер я ниумею выкладвать патскажыте пажалуиста

    Создавать темы 10-Мар-2012 10:06

    [Профиль]  [ЛС] 

    Сарвар ®

    Стаж: 5 лет 9 месяцев

    Сообщений: 20

    А Кто Изминил bw? СПАСИБО ТАМУ КТО ИЗМИНИЛ

    Создавать темы 10-Мар-2012 10:41

    [Профиль]  [ЛС] 

    Pendalf

    Стаж: 6 лет 4 месяца

    Сообщений: 416

    Симпатии: 34

    Сарвар, я подправил. Придерживайтесь такого оформления

    Создавать темы 10-Мар-2012 11:16

    [Профиль]  [ЛС] 
    Показать сообщения:    
    Ответить на тему

    Текущее время: 20-Окт 12:13

    Часовой пояс: UTC + 5



    Вы не можете начинать темы
    Вы не можете отвечать на сообщения
    Вы не можете редактировать свои сообщения
    Вы не можете удалять свои сообщения
    Вы не можете голосовать в опросах
    Вы не можете прикреплять файлы к сообщениям
    Вы не можете скачивать файлы