Все голы Лионеля Месси в сезоне 2010/11 за Барселону [2011 г., Футбол, HDTVRip]

Ответить на тему
 

qweqwe ®

Стаж: 6 лет 6 месяцев

Сообщений: 52

Симпатии: 10

Все голы Лионеля Месси в сезоне 2010/11 за Барселону
Год выпуска: 2011
Вид спорта: Футбол
Продолжительность: 12 мин 39 сек (0:12:39.039)
Комментарий: не требуется
Описание: Все голы (а именно - 53 гола) аргентинца Лионеля Месси в сезоне 2010/11 гг. за каталонский клуб.
Качество: HDTVRip
Формат: MP4
Видео кодек: x264/AVC
Аудио кодек: AAC
Видео: AVC, 1280 x 720, 25 fps, 3 788 Kbps
Аудио: AAC-LC, 48.0 KHz, 2 ch (stereo), 165 kbps

Видео

ID: 1
Format : AVC
Format/Info : Advanced Video Codec
Format profile : [email protected]
Format settings, CABAC : Yes
Format settings, ReFrames : 3 frames
Codec ID : avc1
Codec ID/Info : Advanced Video Coding
Duration : 12mn 39s
Bit rate mode : Variable
Bit rate : 3 788 Kbps
Width : 1 280 pixels
Height : 720 pixels
Display aspect ratio : 16:9
Frame rate mode : Variable
Frame rate : 24.904 fps
Minimum frame rate : 0.581 fps
Maximum frame rate : 25.000 fps
Color space : YUV
Chroma subsampling : 4:2:0
Bit depth : 8 bits
Scan type : Progressive
Bits/(Pixel*Frame) : 0.165
Stream size : 343 MiB (96%)
Writing library : x264 core 115

Аудио

ID : 2
Format : AAC
Format/Info : Advanced Audio Codec
Format profile : LC
Codec ID : 40
Duration : 12mn 39s
Bit rate mode : Constant
Bit rate : 165 Kbps
Nominal bit rate : 256 Kbps
Channel(s) : 2 channels
Channel positions : Front: L R
Sampling rate : 48.0 KHz
Compression mode : Lossy
Stream size : 14.9 MiB (4%)

Скриншоты



Создавать темы 11-Мар-2012 00:20

[Профиль]  [ЛС] 

Bayko

Стаж: 5 лет 3 месяца

Сообщений: 31

Дайте скорости ребята!!!

Создавать темы 09-Май-2012 06:56

[Профиль]  [ЛС] 

Bayko

Стаж: 5 лет 3 месяца

Сообщений: 31

Дайте скорости ребята!!!
Дайте скорости ребята!!!
Дайте скорости ребята!!!
Дайте скорости ребята!!!

Создавать темы 09-Май-2012 06:57

[Профиль]  [ЛС] 
Показать сообщения:    
Ответить на тему

Текущее время: 22-Авг 23:49

Часовой пояс: UTC + 5



Вы не можете начинать темы
Вы не можете отвечать на сообщения
Вы не можете редактировать свои сообщения
Вы не можете удалять свои сообщения
Вы не можете голосовать в опросах
Вы не можете прикреплять файлы к сообщениям
Вы не можете скачивать файлы