Как Брюс Ли изменил мир / How Bruce Lee changed the world

Ответить на тему
 

jamalena0080 ®

Стаж: 5 лет 7 месяцев

Сообщений: 9

Симпатии: 1

Как Брюс Ли изменил мир / How Bruce Lee changed the world- Год выпуска: 2009
Страна: США
Жанр: Документальный
Продолжительность: 1:30:33
Перевод: Профессиональный (одноголосый)
Русские субтитры: нет-Режиссер: Стив Вебб-В ролях: Карим Абдул-Джаббар, Джеки Чан, Маргарет Чо, Раймонд Чоу, Роб Коэн, Шугар Рэй Леонард, Бей Логан, Бретт Ратнер, Джон Ву, Донни Ен и др.-Описание: В честь 35-й годовщины смерти Брюса Ли, «The History Channel» запустил новый, документальный фильм - «How Bruce Lee Changed The World».
В подготовке участвовала семья Брюса. Этот фильм расскажет о том, как мастер боевых искусств и актер, повлиял на мир после своей смерти. В фильме будут интервью с Джеки Чаном, Джоном Ву, комедийным актером Эдди Гриффином, хип-хоп исполнителями RZA и LL Cool J, актером Рэнди Кутюром и многими другими. Будет очень старое и редкое интервью с продюсером и соучредителем «Golden Harvest» — Рэймондом Чоу.-Качество: SatRip
Формат: Flash Video
Видео кодек: Sorenson spark
Аудио кодек: MP3
Видео: 1 720x400, Bit rate : 750 Kbps
Аудио: MPEG Audio Layer 3 44100Hz stereo 32kbps

Медиа инфо

h:\Movie\Как Брюс Ли изменил мир\Как Брюс Ли изменил мир.flv
General
Complete name : h:\Movie\Как Брюс Ли изменил мир\Как Брюс Ли изменил мир.flv
Format : Flash Video
File size : 548 MiB
Duration : 1h 30mn
Overall bit rate : 846 Kbps
Tagging application : Yet Another Metadata Injector for FLV - Version 1.8
Video
Format : Sorenson Spark
Codec ID : 2
Duration : 1h 30mn
Bit rate : 750 Kbps
Width : 720 pixels
Height : 400 pixels
Display aspect ratio : 16:9
Frame rate mode : Constant
Frame rate : 25.000 fps
Bit depth : 8 bits
Bits/(Pixel*Frame) : 0.104
Stream size : 499 MiB (91%)
Audio
Format : MPEG Audio
Format version : Version 1
Format profile : Layer 3
Mode : Joint stereo
Mode extension : MS Stereo
Codec ID : 2
Codec ID/Hint : MP3
Duration : 1h 30mn
Bit rate mode : Variable
Bit rate : 68.3 Kbps
Channel(s) : 2 channels
Sampling rate : 44.1 KHz
Compression mode : Lossy
Stream size : 47.5 MiB (9%)

Скриншоты



Последний раз редактировалось: jamalena0080 (2012-03-13 22:27), всего редактировалось 3 раз(а)

Создавать темы 11-Мар-2012 03:09

[Профиль]  [ЛС] 

victor0778

Стаж: 6 лет 7 месяцев

Сообщений: 1670

Симпатии: 142

Качество: SatRip??? Формат: Flash Video??? Видео кодек??? Вышли лог медиа инфо

Создавать темы 11-Мар-2012 10:11

[Профиль]  [ЛС] 

jamalena0080 ®

Стаж: 5 лет 7 месяцев

Сообщений: 9

Симпатии: 1

Как Брюс Ли изменил мир / How Bruce Lee changed the world
Просьба всем скачавшим Торрент файлы юзерам ПЕРЕЗАЛИТЬ ЗАНОВО торрент файл!

Создавать темы 13-Мар-2012 22:22

[Профиль]  [ЛС] 

credo1221

Стаж: 7 лет 3 месяца

Сообщений: 132

Симпатии: 3

НЕ КАЧАЕТСЯ!!!!! ВЕРНИТЕСЬ НА РАЗДАЧУ!!!

Создавать темы 14-Мар-2012 14:38

[Профиль]  [ЛС] 

Азизи

Стаж: 5 лет 4 месяца

Сообщений: 22

дайте раздачу

Создавать темы 22-Июн-2012 12:47

[Профиль]  [ЛС] 

baxa_1818

Стаж: 5 лет 4 месяца

Сообщений: 62

Симпатии: 3

не ограничивайте раздачу плиз

Создавать темы 04-Июл-2012 19:33

[Профиль]  [ЛС] 

Whitejin

Стаж: 6 лет 5 месяцев

Сообщений: 175

Симпатии: 11

Дайте скачать, хочется посмотреть про Брюса Ли

Создавать темы 27-Авг-2012 10:29

[Профиль]  [ЛС] 

gold_man

Стаж: 8 лет

Сообщений: 162

Симпатии: 18

скоростиии

Создавать темы 21-Окт-2012 19:11

[Профиль]  [ЛС] 

chust_etm

Стаж: 4 года 10 месяцев

Сообщений: 5

Раздача будет или ????

Создавать темы 06-Ноя-2012 08:12

[Профиль]  [ЛС] 
Показать сообщения:    
Ответить на тему

Текущее время: 21-Сен 20:55

Часовой пояс: UTC + 5



Вы не можете начинать темы
Вы не можете отвечать на сообщения
Вы не можете редактировать свои сообщения
Вы не можете удалять свои сообщения
Вы не можете голосовать в опросах
Вы не можете прикреплять файлы к сообщениям
Вы не можете скачивать файлы