[#084] Храброе сердце / Braveheart (Мэл Гибсон) [1995 г., Драма / Боевик / Военный / Биография / Исторический фильм, BDRip]

Страницы :  1, 2  След.

Ответить на тему
 

Kubaev_Muhiddin ®

Стаж: 6 лет 6 месяцев

Сообщений: 104

Симпатии: 34

Храброе сердце / Braveheart
Год выпуска: 1995
Страна: США
Жанр: Драма / Боевик / Военный / Биография / Исторический фильм
Продолжительность: 02:57:40
Перевод: профессиональный (многоголосый, закадровый)
Режиссер: Мэл Гибсон
Продюссер: Брюс Дэйви, Мэл Гибсон, Элан Лэд-мл., Стивен МакЭвити
Сценарий: Рэндол Уоллас
Бюджет: 53 млн.$
В ролях: Мел Мэл Гибсон, Джеймс Робинсон, Шон Лоулор, Сэнди Нельсон, Джеймс Космо, Шон МакГинли, Брайан Кокс, Патрик МакГухан, Софи Марсо, Стивен Биллингтон, Энгус МакФадьен, Джон Кэвэна, Алан Армстронг, Катрин МакКормак, Брендан Глисон, Томми Флэнаган, Руперт Ванситтарт, Майкл Бирн
Описание: Это история легендарного национального шотландского героя Уильяма Уоллеса, посвятившего себя борьбе с англичанами при короле Эдуарде Длинноногом. Он рано лишился отца, который погиб от рук англичан, но его дядя сумел дать мальчику хорошее воспитание в Европе. На родину Уильям (Мел Гибсон) возвращается уже взрослым человеком, мечтающим создать семью и жить мирной жизнью. Но судьба распорядилась иначе. Его жену убили англичане, и он начал свой «крестовый» поход за свободу.
Качество: BDRip
Формат: AVI
Видео кодек: XviD
Аудио кодек: AC-3 2000
Видео: Xvid 1280x536 23.976 fps Bit rate : 3 066 Kbps
Аудио: Dolby AC3 48000 Hz 6ch. 384 kbps
Аудио: Dolby AC3 48000 Hz 6ch. 448 kbps

Медиа инфо

Video
ID : 0
Format : MPEG-4 Visual
Format profile : Advanced [email protected]
Format settings, BVOP : 2
Format settings, QPel : No
Format settings, GMC : No warppoints
Format settings, Matrix : Default (MPEG)
Muxing mode : Packed bitstream
Codec ID : XVID
Codec ID/Hint : XviD
Duration : 2h 57mn
Bit rate : 3 066 Kbps
Width : 1 280 pixels
Height : 536 pixels
Display aspect ratio : 2.40:1
Frame rate : 23.976 fps
Color space : YUV
Chroma subsampling : 4:2:0
Bit depth : 8 bits
Scan type : Progressive
Compression mode : Lossy
Bits/(Pixel*Frame) : 0.186
Stream size : 3.80 GiB (78%)
Writing library : XviD 1.0.3 (UTC 2004-12-20)
Audio #1
ID : 1
Format : AC-3
Format/Info : Audio Coding 3
Mode extension : CM (complete main)
Codec ID : 2000
Duration : 2h 57mn
Bit rate mode : Constant
Bit rate : 384 Kbps
Channel(s) : 6 channels
Channel positions : Front: L C R, Side: L R, LFE
Sampling rate : 48.0 KHz
Bit depth : 16 bits
Compression mode : Lossy
Delay relative to video : 4ms
Stream size : 488 MiB (10%)
Alignment : Split accross interleaves
Interleave, duration : 42 ms (1.00 video frame)
Interleave, preload duration : 500 ms
Audio #2
ID : 2
Format : AC-3
Format/Info : Audio Coding 3
Mode extension : CM (complete main)
Codec ID : 2000
Duration : 2h 57mn
Bit rate mode : Constant
Bit rate : 448 Kbps
Channel(s) : 6 channels
Channel positions : Front: L C R, Side: L R, LFE
Sampling rate : 48.0 KHz
Bit depth : 16 bits
Compression mode : Lossy
Stream size : 569 MiB (11%)
Alignment : Split accross interleaves
Interleave, duration : 42 ms (1.00 video frame)
Interleave, preload duration : 500 ms

Скриншоты









Последний раз редактировалось: Kubaev_Muhiddin (2013-08-06 00:20), всего редактировалось 1 раз

Создавать темы 14-Мар-2012 09:30

[Профиль]  [ЛС] 

weballigator

Стаж: 5 лет 7 месяцев

Сообщений: 3

Симпатии: 1

классный фильм! автору респект!

Создавать темы 18-Мар-2012 21:11

[Профиль]  [ЛС] 

Sparrow

Стаж: 5 лет 5 месяцев

Сообщений: 14

Симпатии: 2

Свободааааа!!!! ;)

Создавать темы 22-Мар-2012 21:56

[Профиль]  [ЛС] 

Skif

Стаж: 5 лет 7 месяцев

Сообщений: 11

Спасибо огромное за фильм!!

Создавать темы 03-Май-2012 09:56

[Профиль]  [ЛС] 

Muzap_best

Стаж: 5 лет 5 месяцев

Сообщений: 12

ДАЙТЕ СКОРОСТЬ?!!!

Создавать темы 10-Май-2012 19:27

[Профиль]  [ЛС] 

murodjon

Стаж: 6 лет 6 месяцев

Сообщений: 163

Симпатии: 10

Качество: BDRip
Не похоже

Создавать темы 15-Авг-2012 17:41

[Профиль]  [ЛС] 

ziyouddin23

Стаж: 5 лет

Сообщений: 14

Симпатии: 4

Kubaev_Muhiddin, Храброе сердце ДАЙТЕ СКОРОСТЬ?!!!

Создавать темы 26-Сен-2012 21:18

[Профиль]  [ЛС] 

barcamol

Стаж: 5 лет 7 месяцев

Сообщений: 29

Симпатии: 15

_ _

Создавать темы 07-Окт-2012 15:24

[Профиль]  [ЛС] 

electron

Стаж: 4 года 5 месяцев

Сообщений: 16

дайте скорости пожалуйста...

Создавать темы 08-Мар-2013 21:45

[Профиль]  [ЛС] 

Reymbay

Стаж: 4 года 3 месяца

Сообщений: 4

народ,
английская озвучка есть?

Создавать темы 31-Май-2013 13:04

[Профиль]  [ЛС] 

Kubaev_Muhiddin ®

Стаж: 6 лет 6 месяцев

Сообщений: 104

Симпатии: 34

народ,
английская озвучка есть?
Да там есть две дорожки

Создавать темы 10-Окт-2013 17:27

[Профиль]  [ЛС] 

Mr.Wolf

Стаж: 6 лет 3 месяца

Сообщений: 43

Симпатии: 3

Автор не уходи с раздачи пожалуйста. Качаю у тебя потому что ты написал что есть англ. дорожка.

Создавать темы 19-Окт-2013 22:42

[Профиль]  [ЛС] 

vampire1991

Стаж: 4 года 1 месяц

Сообщений: 23

Очен прошу раздачу Я люблю этот филем с рождений вот пожить в таком мире =)

Создавать темы 28-Янв-2014 10:56

[Профиль]  [ЛС] 

freestyle

Стаж: 5 лет 7 месяцев

Сообщений: 55

Симпатии: 4

дайте скорости пожалуйста совсем не качается (заранее всем спасибо за понимание)

Создавать темы 31-Янв-2014 10:52

[Профиль]  [ЛС] 

Don.

Стаж: 4 года

Сообщений: 5

ДАЙТЕ СКОРОСТЬ?

Создавать темы 09-Фев-2014 20:19

[Профиль]  [ЛС] 
Показать сообщения:    
Ответить на тему

Текущее время: 21-Авг 15:16

Часовой пояс: UTC + 5



Вы не можете начинать темы
Вы не можете отвечать на сообщения
Вы не можете редактировать свои сообщения
Вы не можете удалять свои сообщения
Вы не можете голосовать в опросах
Вы не можете прикреплять файлы к сообщениям
Вы не можете скачивать файлы