Война Богов: Бессмертные / Immortals (Тарсем Синх) [2011 г., фэнтези, боевик, драма, BDRemux]

Страницы :  1, 2, 3  След.

Ответить на тему
 

DMiTRY ®

Стаж: 6 лет 6 месяцев

Сообщений: 649

Симпатии: 28

Война Богов: Бессмертные / Immortals
Год выпуска: 2011
Страна: США
Жанр: фэнтези, боевик, драма
Продолжительность: 01.50.00
Перевод: профессиональный (полное дублирование)
Режиссер: Тарсем Синх
Продюссер: Джанни Нуннари, Марк Кантон, Райан Кэвэна
Сценарий: Чарли Парлапанидес, Влас Парлапанидес
Бюджет: $75 000 000
Премьера в мире: 10 ноября 2011
В ролях: Генри Кавилл, Стивен Дорфф, Люк Эванс, Изабель Лукас, Келлан Латс, Фрида Пинто, Микки Рурк, Джон Хёрт, Джозеф Морган, Энн Дэй-Джон
Описание: Одержимый жаждой власти царь Гиперион хочет уничтожить род людской и низвергнуть богов. С помощью Эпирского Лука, сделанного руками бога войны Ареса, он освобождает Титанов от тысячелетнего заточения в горах Тартара. Боги бессильны противостоять безумному царю. Единственная надежда на спасение герой Тесей, который вступает в неравную войну с Титанами. Боги Олимпа во главе с самим Зевсом, пророчица Федра и хитрый раб Ставрос помогают герою в смертельной битве с демонами. Тесей должен победить, или боги Олимпа будут низвержены, а Эллада обречена на погибель
Качество: BDRemux - 1080p
Формат: MKV
Видео кодек h.264 - AVC
Аудио кодек: AC3
Видео: AVC at 14,5 Мбит/сек, 1920 x 1080 (1.778) at 23.976 fps
Аудио: AC-3 at 640 Кбит/сек, 6 каналов, 48,0 КГц | Дублированный

MediaInfo

Общее
Уникальный идентификатор : 248075739941128327144297099488854380937 (0xBAA1A64C5F901F8E9563A48CC6BD9189)
Полное имя : D:\Война богов. Бессмертные.2011.Blu-Ray.Remux.(1080p).mkv
Формат : Matroska
Версия формата : Version 1
Размер файла : 11,9 Гбайт
Продолжительность : 1 ч. 50 м.
Общий поток : 15,5 Мбит/сек
Дата кодирования : UTC 2012-01-18 12:41:19
Программа кодирования : mkvmerge v2.2.0 ('Turn It On Again') built on Mar 4 2008 13:20:25
Библиотека кодирования : libebml v0.7.7 + libmatroska v0.8.1
Видео
Идентификатор : 1
Формат : AVC
Формат/Информация : Advanced Video Codec
Профиль формата : [email protected]
Параметр CABAC формата : Да
Параметр ReFrames формата : 3 кадра
Идентификатор кодека : V_MPEG4/ISO/AVC
Продолжительность : 1 ч. 50 м.
Вид битрейта : Переменный
Битрейт : 14,5 Мбит/сек
Максимальный битрейт : 25,0 Мбит/сек
Ширина : 1920 пикс.
Высота : 1080 пикс.
Соотношение сторон : 16:9
Частота кадров : 23,976 кадр/сек
Стандарт вещания : NTSC
Цветовое пространство : YUV
Подвыборка цветности : 4:2:0
Битовая глубина : 8 бит
Тип развёртки : Прогрессивная
Бит/(Пиксели*Кадры) : 0.292
Размер потока : 11,2 Гбайт (94%)
Аудио
Идентификатор : 2
Формат : AC-3
Формат/Информация : Audio Coding 3
Расширение режима : CM (complete main)
Идентификатор кодека : A_AC3
Продолжительность : 1 ч. 50 м.
Вид битрейта : Постоянный
Битрейт : 640 Кбит/сек
Каналы : 6 каналов
Расположение каналов : Front: L C R, Side: L R, LFE
Частота : 48,0 КГц
Битовая глубина : 16 бит
Метод сжатия : С потерями
Размер потока : 505 Мбайт (4%)

Скриншоты





Последний раз редактировалось: DMiTRY (2012-03-16 21:18), всего редактировалось 2 раз(а)

Создавать темы 15-Мар-2012 17:08

[Профиль]  [ЛС] 

vp1973

Стаж: 6 лет 7 месяцев

Сообщений: 106

Симпатии: 5

DMiTRY,
на какой скорости будешь раздавать?

Создавать темы 15-Мар-2012 18:01

[Профиль]  [ЛС] 

DMiTRY ®

Стаж: 6 лет 6 месяцев

Сообщений: 649

Симпатии: 28

раздача на 60-70кб. Больше не получается.

Создавать темы 15-Мар-2012 18:17

[Профиль]  [ЛС] 

Jokero

Стаж: 6 лет 7 месяцев

Сообщений: 176

Симпатии: 4

ждёмс золота)))

Создавать темы 15-Мар-2012 20:16

[Профиль]  [ЛС] 

DMiTRY ®

Стаж: 6 лет 6 месяцев

Сообщений: 649

Симпатии: 28

раздача строго с 8 утра до 11 вечера.

Создавать темы 15-Мар-2012 21:27

[Профиль]  [ЛС] 

Pendalf

Стаж: 6 лет 5 месяцев

Сообщений: 416

Симпатии: 34

DMiTRY, Скрины поправьте. Их разрешение 1920×1088, а заявлено 1080 пикселей по высоте

Создавать темы 15-Мар-2012 23:13

[Профиль]  [ЛС] 

iApple

Стаж: 5 лет 9 месяцев

Сообщений: 66

Симпатии: 15

Эх, ну как же так, BDRemux и с одной дорожкой...? :(

Создавать темы 16-Мар-2012 03:30

[Профиль]  [ЛС] 

DMiTRY ®

Стаж: 6 лет 6 месяцев

Сообщений: 649

Симпатии: 28

DMiTRY, Скрины поправьте. Их разрешение 1920×1088, а заявлено 1080 пикселей по высоте
сегодня в свободное время будет поправлено...

Создавать темы 16-Мар-2012 07:43

[Профиль]  [ЛС] 

DMiTRY ®

Стаж: 6 лет 6 месяцев

Сообщений: 649

Симпатии: 28

Эх, ну как же так, BDRemux и с одной дорожкой...? :(
эх да,всё лишнее вырезали вообщем) сам был опечален...

Создавать темы 16-Мар-2012 07:44

[Профиль]  [ЛС] 

iApple

Стаж: 5 лет 9 месяцев

Сообщений: 66

Симпатии: 15

Незнаю как в плоскости, а в 3Д конечно очень смотрибельное кино.
Если найду отдельно оригинальную дорожку, наверное качну себе в коллекцию )))

Создавать темы 16-Мар-2012 13:30

[Профиль]  [ЛС] 

DMiTRY ®

Стаж: 6 лет 6 месяцев

Сообщений: 649

Симпатии: 28

перезалил скриншоты... вроде бы сейчас показывает 1080 пикселей по высоте) если я не ошибаюсь...

Создавать темы 16-Мар-2012 15:14

[Профиль]  [ЛС] 

Pendalf

Стаж: 6 лет 5 месяцев

Сообщений: 416

Симпатии: 34

DMiTRY, первый и третий скрины повторяются... исправьте

Создавать темы 16-Мар-2012 21:00

[Профиль]  [ЛС] 

DMiTRY ®

Стаж: 6 лет 6 месяцев

Сообщений: 649

Симпатии: 28

извините,не заметил,сменил...

Создавать темы 16-Мар-2012 21:19

[Профиль]  [ЛС] 

Pendalf

Стаж: 6 лет 5 месяцев

Сообщений: 416

Симпатии: 34

DMiTRY, на будущее:
При добавлении картинки пользуйтесь кодом:
[img]Ссылка на картинку[/img]
Скриншоты, желательно, заливать в формате .png, т.к. jpg заведомо хуже качеством-его алгоритм жмет картинку с потерями. В формате png, в свою очередь, используется алгоритм сжатия без потерь

Создавать темы 16-Мар-2012 23:58

[Профиль]  [ЛС] 

DMiTRY ®

Стаж: 6 лет 6 месяцев

Сообщений: 649

Симпатии: 28

DMiTRY, на будущее:
При добавлении картинки пользуйтесь кодом:
[img]Ссылка на картинку[/img]
Скриншоты, желательно, заливать в формате .png, т.к. jpg заведомо хуже качеством-его алгоритм жмет картинку с потерями. В формате png, в свою очередь, используется алгоритм сжатия без потерь
спасибо за помощь Pendalf, и спасибо за консультирование... очень нужные вещи говорите... хороший модератор. если будут проблемы с оформлением,обращусь к вам в "личное сообщение". ещё раз Спасибо

Создавать темы 17-Мар-2012 00:17

[Профиль]  [ЛС] 
Показать сообщения:    
Ответить на тему

Текущее время: 19-Ноя 11:51

Часовой пояс: UTC + 5



Вы не можете начинать темы
Вы не можете отвечать на сообщения
Вы не можете редактировать свои сообщения
Вы не можете удалять свои сообщения
Вы не можете голосовать в опросах
Вы не можете прикреплять файлы к сообщениям
Вы не можете скачивать файлы