Матрица Трилогия - Matrix Trilogy (Энди Вачовски, Лана Вачовски) [1999-2003-2003 г.г, Фантастика / Боевик / Приключения / Триллер /Кибер-панк, HDRip]

Страницы :  1, 2, 3  След.

Ответить на тему
 

Kubaev_Muhiddin ®

Стаж: 6 лет 9 месяцев

Сообщений: 104

Симпатии: 34

Матрица / Matrix
Год выпуска: 1999
Страна: США, Австралия
Жанр: Фантастика / Боевик / Приключения / Кибер-панк
Продолжительность: 02:16:18
Перевод: профессиональный (полное дублирование)
Режиссер: Энди Вачовски, Лана Вачовски
В ролях: Киану Ривз, Лоренс Фишбёрн, Кэрри-Энн Мосс, Хьюго Уивинг, Глория Фостер, Джо Пантолиано, Маркус Чонг, Джулиан Араханга, Мэтт Доран, Белинда МакКлори
Описание: Описание: А что если мир, в котором мы живем, на самом деле не существует?...а что если все это иллюзия, которая существует только в бесконечном сне обреченного человечества. Этот сон - матрица, холодный мир безутешного будущего, в котором люди — всего лишь элементы питания для компьютерных систем
Качество: HDRip
Формат: AVI
Видео кодек: XviD
Аудио кодек: AC-3 2000
Видео: Xvid 720x304 23.976 fps 1 075 kbps
Аудио: Dolby AC3 48000 Hz 6ch. 448 kbps

Медиа инфо

Video
ID : 0
Format : MPEG-4 Visual
Format profile : Advanced [email protected]
Format settings, BVOP : 2
Format settings, QPel : No
Format settings, GMC : No warppoints
Format settings, Matrix : Default (MPEG)
Muxing mode : Packed bitstream
Codec ID : XVID
Codec ID/Hint : XviD
Duration : 2h 16mn
Bit rate : 1 075 Kbps
Width : 720 pixels
Height : 304 pixels
Display aspect ratio : 2.35:1
Frame rate : 23.976 fps
Color space : YUV
Chroma subsampling : 4:2:0
Bit depth : 8 bits
Scan type : Progressive
Compression mode : Lossy
Bits/(Pixel*Frame) : 0.205
Stream size : 1.02 GiB (70%)
Writing library : XviD 1.2.1 (UTC 2008-12-04)
Audio
ID : 1
Format : AC-3
Format/Info : Audio Coding 3
Mode extension : CM (complete main)
Codec ID : 2000
Duration : 2h 16mn
Bit rate mode : Constant
Bit rate : 448 Kbps
Channel(s) : 6 channels
Channel positions : Front: L C R, Side: L R, LFE
Sampling rate : 48.0 KHz
Bit depth : 16 bits
Compression mode : Lossy
Stream size : 437 MiB (29%)
Alignment : Split accross interleaves
Interleave, duration : 42 ms (1.00 video frame)
Interleave, preload duration : 500 ms

Скриншоты



Матрица Перезагрузка / The Matrix Reloaded
Год выпуска: 2003
Страна: США, Австралия
Жанр: Фантастика / Боевик / Триллер / Приключения
Продолжительность: 02:18:15
Перевод: профессиональный (полное дублирование)
Режиссер: Энди Вачовски, Лана Вачовски
В ролях: Киану Ривз, Лоуренс Фишберн, Кэрри-Энн, Хьюго Уивинг, Джада Пинкетт Смит, Моника Белуччи
Описание: Борцы за свободу Нео, Тринити и Морфеус продолжают руководить восстанием людей против Армии Машин. Для уничтожения системы репрессий и эксплуатации они вынуждены прибегнуть не только к арсеналу превосходного оружия, но и к своим выдающимся навыкам. Участие в миссии по спасению человеческой расы от ее полного истребления приносит им более глубокое понимание конструкции Матрицы и осознание центральной роли Нео в судьбе человечества
Качество: HDRip
Формат: AVI
Видео кодек: XviD
Аудио кодек: AC-3 2000
Видео: Xvid 720x304 23.976 fps 1 052 kbps
Аудио: Dolby AC3 48000 Hz 6ch. 448 kbps

Медиа инфо

Video
ID : 0
Format : MPEG-4 Visual
Format profile : Advanced [email protected]
Format settings, BVOP : 2
Format settings, QPel : No
Format settings, GMC : No warppoints
Format settings, Matrix : Default (MPEG)
Muxing mode : Packed bitstream
Codec ID : XVID
Codec ID/Hint : XviD
Duration : 2h 18mn
Bit rate : 1 052 Kbps
Width : 720 pixels
Height : 304 pixels
Display aspect ratio : 2.35:1
Frame rate : 23.976 fps
Color space : YUV
Chroma subsampling : 4:2:0
Bit depth : 8 bits
Scan type : Progressive
Compression mode : Lossy
Bits/(Pixel*Frame) : 0.201
Stream size : 1.02 GiB (70%)
Writing library : XviD 1.2.1 (UTC 2008-12-04)
Audio
ID : 1
Format : AC-3
Format/Info : Audio Coding 3
Mode extension : CM (complete main)
Codec ID : 2000
Duration : 2h 18mn
Bit rate mode : Constant
Bit rate : 448 Kbps
Channel(s) : 6 channels
Channel positions : Front: L C R, Side: L R, LFE
Sampling rate : 48.0 KHz
Bit depth : 16 bits
Compression mode : Lossy
Stream size : 443 MiB (30%)
Alignment : Split accross interleaves
Interleave, duration : 42 ms (1.00 video frame)
Interleave, preload duration : 500 ms

Скриншоты



Матрица Революция / The Matrix Revolutions
Год выпуска: 2003
Страна: США, Австралия
Жанр: Фантастика / Боевик / Приключения / Кибер-панк
Продолжительность: 02:09:18
Перевод: профессиональный (полное дублирование)
Режиссер: Энди Вачовски, Лана Вачовски
В ролях: Киану Ривз, Кэрри-Энн Мосс, Хьюго Уивинг, Лоуренс Фишберн, Моника Белуччи, Гельмут Бакайтис
Описание: Пока Армия Машин пытается уничтожить Зион, его жители из последних сил держат оборону. А единственной надежде человечества, избранному Нео, предстоит исполнить свою миссию, его ждет путешествие туда, куда не ступала нога человека - в самое сердце Города Машин, и решающая схватка с главным врагом - Агентом Смитом, созданным Матрицей и уже не контролируемымы ею. Считанные часы остаются до того момента, когда Зион падет и спасение людей будет невозможным
Качество: HDRip
Формат: AVI
Видео кодек: XviD
Аудио кодек: AC-3 2000
Видео: Xvid 720x304 23.976 fps 1 157 Kbps
Аудио: Dolby AC3 48000 Hz 6ch. 448 kbps

Медиа инфо

Video
ID : 0
Format : MPEG-4 Visual
Format profile : Advanced [email protected]
Format settings, BVOP : 2
Format settings, QPel : No
Format settings, GMC : No warppoints
Format settings, Matrix : Default (MPEG)
Muxing mode : Packed bitstream
Codec ID : XVID
Codec ID/Hint : XviD
Duration : 2h 9mn
Bit rate : 1 157 Kbps
Width : 720 pixels
Height : 304 pixels
Display aspect ratio : 2.35:1
Frame rate : 23.976 fps
Color space : YUV
Chroma subsampling : 4:2:0
Bit depth : 8 bits
Scan type : Progressive
Compression mode : Lossy
Bits/(Pixel*Frame) : 0.220
Stream size : 1.04 GiB (72%)
Writing library : XviD 1.2.1 (UTC 2008-12-04)
Audio
ID : 1
Format : AC-3
Format/Info : Audio Coding 3
Mode extension : CM (complete main)
Codec ID : 2000
Duration : 2h 9mn
Bit rate mode : Constant
Bit rate : 448 Kbps
Channel(s) : 6 channels
Channel positions : Front: L C R, Side: L R, LFE
Sampling rate : 48.0 KHz
Bit depth : 16 bits
Compression mode : Lossy
Stream size : 414 MiB (28%)
Alignment : Split accross interleaves
Interleave, duration : 42 ms (1.00 video frame)
Interleave, preload duration : 500 ms

Скриншоты






Последний раз редактировалось: Kubaev_Muhiddin (2013-08-13 17:48), всего редактировалось 2 раз(а)

Создавать темы 15-Мар-2012 19:33

[Профиль]  [ЛС] 

DMiTRY

Стаж: 6 лет 6 месяцев

Сообщений: 649

Симпатии: 28

cкорее этот релиз должен находиться в разделе "HD-AVC"

Создавать темы 15-Мар-2012 20:06

[Профиль]  [ЛС] 

Топик был перенесен из форума Зарубежное кино в форум Зарубежное кино

Mixer City

Создавать темы 15-Мар-2012 20:46

 

Kubaev_Muhiddin ®

Стаж: 6 лет 9 месяцев

Сообщений: 104

Симпатии: 34

Там формат другой

Создавать темы 15-Мар-2012 22:06

[Профиль]  [ЛС] 

Tesla

Стаж: 6 лет 10 месяцев

Сообщений: 5

Симпатии: 1

Мухиддин не выключай комп только) а то никак скачать не могу

Создавать темы 17-Мар-2012 21:51

[Профиль]  [ЛС] 

Александр10

Стаж: 6 лет 6 месяцев

Сообщений: 1

Симпатии: 1

пожалуйста встаньте на раздачу

Создавать темы 19-Мар-2012 15:10

[Профиль]  [ЛС] 

Max1973

Стаж: 5 лет 10 месяцев

Сообщений: 13

Симпатии: 1

Где раздающий?

Создавать темы 21-Мар-2012 19:32

[Профиль]  [ЛС] 

vadim-mark

Стаж: 5 лет 10 месяцев

Сообщений: 46

Симпатии: 2

Эх... золото бы, может дадите...)))

Создавать темы 06-Апр-2012 14:25

[Профиль]  [ЛС] 

WhiteNight

Стаж: 5 лет 7 месяцев

Сообщений: 7

Симпатии: 2

Скорости, скорости , скорости и еще чуть чуть скорости пожалуйста )) Спасибо ))

Создавать темы 18-Апр-2012 19:44

[Профиль]  [ЛС] 

Uzer5

Стаж: 6 лет 4 месяца

Сообщений: 76

Симпатии: 13

Вообще считаю надо золотую раздачу сделать, как-никак фильм не только культовый, но и признан классикой современного кино, как и властелин колец.

_________________
Подпись отключена за нарушение правил форума

Создавать темы 15-Май-2012 00:47

[Профиль]  [ЛС] 

Judas Desperados

Стаж: 5 лет 9 месяцев

Сообщений: 185

Симпатии: 19

Uzer5, золотая раздача не по этим критериям даются, ну в моем понимание так

Создавать темы 15-Май-2012 00:59

[Профиль]  [ЛС] 

Uzer5

Стаж: 6 лет 4 месяца

Сообщений: 76

Симпатии: 13

Uzer5, золотая раздача не по этим критериям даются, ну в моем понимание так
Всё-равно можно сделать некоторые исключения для таких фильмов. Это как бесплатная библиотека. Получается фильмы-однодневки можно качать без траты рейтина, а за действительно хорошее отдашь, причем чувствительную часть. Имхо.

_________________
Подпись отключена за нарушение правил форума

Создавать темы 17-Май-2012 11:22

[Профиль]  [ЛС] 

vadim-mark

Стаж: 5 лет 10 месяцев

Сообщений: 46

Симпатии: 2

Пустое, удалено!

Создавать темы 18-Май-2012 19:19

[Профиль]  [ЛС] 

S e V e R u S

Стаж: 5 лет 5 месяцев

Сообщений: 8

Симпатии: 1

Отлично

Создавать темы 26-Май-2012 13:39

[Профиль]  [ЛС] 

muzaffarking

Стаж: 5 лет 6 месяцев

Сообщений: 23

Симпатии: 1

плиз сиды добавьте скорости пжлст!

Создавать темы 18-Июл-2012 22:37

[Профиль]  [ЛС] 
Показать сообщения:    
Ответить на тему

Текущее время: 18-Ноя 15:25

Часовой пояс: UTC + 5



Вы не можете начинать темы
Вы не можете отвечать на сообщения
Вы не можете редактировать свои сообщения
Вы не можете удалять свои сообщения
Вы не можете голосовать в опросах
Вы не можете прикреплять файлы к сообщениям
Вы не можете скачивать файлы