Форсаж 5 / Fast Five (Джастин Лин / Justin Lin) [2011 г., США. Боевик, триллер, криминал. BDRemux 1080p]

Ответить на тему
 

bandit ®

Стаж: 8 лет 10 месяцев

Сообщений: 37

Симпатии: 14

Форсаж 5 / Fast Five
«Всё решает скорость, всё решает команда»

Страна: США
Жанр: Боевик, триллер, криминал
Год выпуска: 2011
Продолжительность: 02:10:21
Перевод : Профессиональный (дубляж)
Cубтитры: Русские, Английские-Режиссёр: Джастин Лин / Justin Lin-В ролях: Вин Дизель, Пол Уокер, Джордана Брюстер, Тайриз Гибсон, Лудакрис, Эльза Патаки, Галь Гадот, Тего Калдерон, Дон Омар, Мэтт Шульце-Описание: Бывший полицейский Брайан О`Коннер вместе с бывалым лихачом Домиником Торетто совсем немного увлеклись жизнью вне закона. После того, как Брайан и Миа Торетто освободили Доминика, они не рискуют долго задерживаться на одном месте, так как являются желанной целью порядком недовольных копов.- -Качество: BDRemux
Контейнер: MKV
Видео: MPEG-4 AVC Video / 21510 kbps / 1080p / 23,976 fps / 16:9 / High Profile 4.1
Аудио #1: Русский дубляж / DTS / 5.1 / 768 kbps / 48 kHz
Аудио #2: Украинский дубляж / Dolby Digital / 5.1 / 384 kbps / 48 kHz
Аудио #3: Английский / DTS-HD MA / 5.1 / 48 kHz / 3987 kbps / 24-bit (DTS Core: 5.1 / 48 kHz / 1509 kbps / 24-bit)
Аудио #4: Английский / Dolby Digital / 2.0 / 192 kbps / 48kHz (Commentary)
Cубтитры #1: Русские (надписи и пр.)
Cубтитры #2: Русские (Перевод: Дмитрий Goblin Пучков)
Cубтитры #3: Русские (комментарии)
Cубтитры #4: Английские (диалоги на португальском)
Cубтитры #5: Английские SDH
Cубтитры #6: Английские (комментарии)
Cубтитры #7: Русские pgs (надписи и пр.)
Cубтитры #8: Русские pgs (комментарии)
Cубтитры #9: Английские pgs (диалоги на португальском)
Cубтитры #10: Английские pgs SDH
Cубтитры #11: Английские pgs (комментарии)
Чаптеры: есть

MediaInfo

Complete name                    : Fast.Five.2011.Blu-ray.1080p.AVC.Rus.Ukr.Eng.mkv
Format                           : Matroska
File size                        : 24.6 GiB
Duration                         : 2h 10mn
Overall bit rate                 : 27.0 Mbps
Movie name                       : HANSMER
Encoded date                     : UTC 2011-08-19 17:45:58
Writing application              : mkvmerge v4.9.1 ('Ich will') сборка от Jul 11 2011 23:53:15
Writing library                  : libebml v1.2.1 + libmatroska v1.1.1
Video
ID                               : 1
Format                           : AVC
Format/Info                      : Advanced Video Codec
Format profile                   : [email protected]
Format settings, CABAC           : Yes
Format settings, ReFrames        : 4 frames
Muxing mode                      : Container [email protected]
Codec ID                         : V_MPEG4/ISO/AVC
Duration                         : 2h 10mn
Bit rate mode                    : Variable
Bit rate                         : 23.5 Mbps
Maximum bit rate                 : 30.0 Mbps
Width                            : 1 920 pixels
Height                           : 1 080 pixels
Display aspect ratio             : 16:9
Frame rate                       : 23.976 fps
Color space                      : YUV
Chroma subsampling               : 4:2:0
Bit depth                        : 8 bits
Scan type                        : Progressive
Bits/(Pixel*Frame)               : 0.473
Stream size                      : 21.4 GiB (87%)
Title                            : 21510 kbps
Language                         : English
Color primaries                  : BT.709-5, BT.1361, IEC 61966-2-4, SMPTE RP177
Transfer characteristics         : BT.709-5, BT.1361
Matrix coefficients              : BT.709-5, BT.1361, IEC 61966-2-4 709, SMPTE RP177
Audio #1
ID                               : 2
Format                           : DTS
Format/Info                      : Digital Theater Systems
Codec ID                         : A_DTS
Duration                         : 2h 10mn
Bit rate mode                    : Constant
Bit rate                         : 755 Kbps
Channel(s)                       : 6 channels
Channel positions                : Front: L C R, Side: L R, LFE
Sampling rate                    : 48.0 KHz
Bit depth                        : 24 bits
Compression mode                 : Lossy
Stream size                      : 703 MiB (3%)
Language                         : Russian
Audio #2
ID                               : 3
Format                           : AC-3
Format/Info                      : Audio Coding 3
Mode extension                   : CM (complete main)
Codec ID                         : A_AC3
Duration                         : 2h 10mn
Bit rate mode                    : Constant
Bit rate                         : 384 Kbps
Channel(s)                       : 6 channels
Channel positions                : Front: L C R, Side: L R, LFE
Sampling rate                    : 48.0 KHz
Bit depth                        : 16 bits
Compression mode                 : Lossy
Stream size                      : 358 MiB (1%)
Language                         : Ukrainian
Audio #3
ID                               : 4
Format                           : DTS
Format/Info                      : Digital Theater Systems
Format profile                   : MA / Core
Codec ID                         : A_DTS
Duration                         : 2h 10mn
Bit rate mode                    : Variable
Bit rate                         : 1 576 Kbps / 1 510 Kbps
Channel(s)                       : 6 channels
Channel positions                : Front: L C R, Side: L R, LFE
Sampling rate                    : 48.0 KHz
Bit depth                        : 24 bits
Compression mode                 : Lossless / Lossy
Title                            : DTS-HD MA 5.1 @ 3987 kbps
Language                         : English
Audio #4
ID                               : 5
Format                           : AC-3
Format/Info                      : Audio Coding 3
Format profile                   : Dolby Digital
Mode extension                   : CM (complete main)
Codec ID                         : A_AC3
Duration                         : 2h 10mn
Bit rate mode                    : Constant
Bit rate                         : 192 Kbps
Channel(s)                       : 2 channels
Channel positions                : Front: L R
Sampling rate                    : 48.0 KHz
Bit depth                        : 16 bits
Compression mode                 : Lossy
Stream size                      : 179 MiB (1%)
Title                            : Commentary
Language                         : English
Text #1
ID                               : 6
Format                           : UTF-8
Codec ID                         : S_TEXT/UTF8
Codec ID/Info                    : UTF-8 Plain Text
Title                            : Forced
Language                         : Russian
Text #2
ID                               : 7
Format                           : UTF-8
Codec ID                         : S_TEXT/UTF8
Codec ID/Info                    : UTF-8 Plain Text
Title                            : Goblin
Language                         : Russian
Text #3
ID                               : 8
Format                           : UTF-8
Codec ID                         : S_TEXT/UTF8
Codec ID/Info                    : UTF-8 Plain Text
Title                            : Commentary
Language                         : Russian
Text #4
ID                               : 9
Format                           : UTF-8
Codec ID                         : S_TEXT/UTF8
Codec ID/Info                    : UTF-8 Plain Text
Title                            : Forced
Language                         : English
Text #5
ID                               : 10
Format                           : UTF-8
Codec ID                         : S_TEXT/UTF8
Codec ID/Info                    : UTF-8 Plain Text
Title                            : SDH
Language                         : English
Text #6
ID                               : 11
Format                           : UTF-8
Codec ID                         : S_TEXT/UTF8
Codec ID/Info                    : UTF-8 Plain Text
Title                            : Commentary
Language                         : English
Text #7
ID                               : 12
Format                           : PGS
Codec ID                         : S_HDMV/PGS
Codec ID/Info                    : The same subtitle format used on BDs/HD-DVDs
Title                            : PGS Forced
Language                         : Russian
Text #8
ID                               : 13
Format                           : PGS
Codec ID                         : S_HDMV/PGS
Codec ID/Info                    : The same subtitle format used on BDs/HD-DVDs
Title                            : PGS Commentary
Language                         : Russian
Text #9
ID                               : 14
Format                           : PGS
Codec ID                         : S_HDMV/PGS
Codec ID/Info                    : The same subtitle format used on BDs/HD-DVDs
Title                            : PGS Forced
Language                         : English
Text #10
ID                               : 15
Format                           : PGS
Codec ID                         : S_HDMV/PGS
Codec ID/Info                    : The same subtitle format used on BDs/HD-DVDs
Title                            : PGS SDH
Language                         : English
Text #11
ID                               : 16
Format                           : PGS
Codec ID                         : S_HDMV/PGS
Codec ID/Info                    : The same subtitle format used on BDs/HD-DVDs
Title                            : PGS Commentary
Language                         : English
Menu
00:00:00.000                     : en:00:00:00.000
00:07:45.715                     : en:00:07:45.715
00:17:29.465                     : en:00:17:29.465
00:23:01.839                     : en:00:23:01.839
00:28:21.575                     : en:00:28:21.575
00:34:55.635                     : en:00:34:55.635
00:40:46.319                     : en:00:40:46.319
00:48:41.585                     : en:00:48:41.585
00:55:20.317                     : en:00:55:20.317
01:03:09.953                     : en:01:03:09.953
01:10:44.657                     : en:01:10:44.657
01:18:25.868                     : en:01:18:25.868
01:22:36.201                     : en:01:22:36.201
01:27:58.732                     : en:01:27:58.732
01:31:53.425                     : en:01:31:53.425
01:39:13.322                     : en:01:39:13.322
01:47:00.748                     : en:01:47:00.748
01:54:50.133                     : en:01:54:50.133
01:59:15.231                     : en:01:59:15.231
02:03:24.397                     : en:02:03:24.397

Скриншоты






Создавать темы 16-Мар-2012 14:25

[Профиль]  [ЛС] 

bandit ®

Стаж: 8 лет 10 месяцев

Сообщений: 37

Симпатии: 14

заранее прошу прощения что нету скриншотов. у меня macbook честно говоря не умею их делать ) размер фильма уже говорит обо всем )

Создавать темы 16-Мар-2012 14:26

[Профиль]  [ЛС] 

DMiTRY

Стаж: 6 лет 6 месяцев

Сообщений: 649

Симпатии: 28

по размерам фильма то видно,но правила есть правила... вот вам в помощь,как сделать скриншоты с фильма - http://tas-ix.net/viewtopic.php?t=7193,подправьте,а то ваша раздача будет "Недооформлена".

Создавать темы 16-Мар-2012 15:18

[Профиль]  [ЛС] 

DMiTRY

Стаж: 6 лет 6 месяцев

Сообщений: 649

Симпатии: 28

и ещё, пожалуйста огласите график своей раздачи... со скольки до скольки вы сможете раздавать? и сколько дней в неделю ? если будете плотно с 8 утра до 12 ночи раздавать,я буду качать...

Создавать темы 16-Мар-2012 19:24

[Профиль]  [ЛС] 

bandit ®

Стаж: 8 лет 10 месяцев

Сообщений: 37

Симпатии: 14

буду 24 часа ;-) комп не выключаю. у меня macbook а то что вы дали это для windows

Создавать темы 16-Мар-2012 19:33

[Профиль]  [ЛС] 

DMiTRY

Стаж: 6 лет 6 месяцев

Сообщений: 649

Симпатии: 28

cпасибо,значит буду качать...

Создавать темы 16-Мар-2012 19:51

[Профиль]  [ЛС] 

DMiTRY

Стаж: 6 лет 6 месяцев

Сообщений: 649

Симпатии: 28

на какой скорости будет раздача?

Создавать темы 16-Мар-2012 20:02

[Профиль]  [ЛС] 
Показать сообщения:    
Ответить на тему

Текущее время: 22-Ноя 17:34

Часовой пояс: UTC + 5



Вы не можете начинать темы
Вы не можете отвечать на сообщения
Вы не можете редактировать свои сообщения
Вы не можете удалять свои сообщения
Вы не можете голосовать в опросах
Вы не можете прикреплять файлы к сообщениям
Вы не можете скачивать файлы