Пила / Saw / Все части (Джеймс Ван и др.) [2004-2009 гг., Триллер / Ужасы, DVDRip]

Страницы :  1, 2, 3  След.

Ответить на тему
 

Kubaev_Muhiddin ®

Стаж: 6 лет 6 месяцев

Сообщений: 104

Симпатии: 34

Пила: Игра на выживания / Saw
Год выпуска: 2004
Страна: США, Австралия
Жанр: Триллер / Ужасы
Продолжительность: 01:42:46
Перевод: профессиональный (полное дублирование)
Режиссер: Джеймс Ван
Продюссер: Грегг Хоффман, Питер Блок, Ларк Бернини, Марк Бёрг
Сценарий: Джеймс Ван, Ли Уоннелл
Бюджет: 1,2 млн. $
В ролях: Ли Уоннелл, Кэри Элвис, Дэнни Гловер, Кен Люн, Дина Мейер, Майк Баттерз, Пол Гутрехт, Майкл Эмерсон, Бенито Мартинез, Шоуни Смит
Описание: Двое незнакомцев просыпаются в странном подвальном помещении. В центре помещения — труп мужчины с простреленной головой и оружием в ослабевшей руке. Они же прикованы к стенам цепями за щиколотки. Оба не знают, как там оказались.Путём нехитрых предположений и спрятанных вокруг них ответов, как частей какого-то паззла, они узнают, по крайней мере, зачем они здесь и что именно от них ждёт их Похититель. Голос с найденной плёнки бесстрастно вещает: «Если ты хочешь спасти свою жену и детей, убей другого». Убить другого можно, только дотянувшись до оружия.Дотянуться до оружия нельзя иначе, как избавившись от цепи. Избавиться от цепи нельзя иначе, кроме как отпилив ногу. Времени — мало. Но достаточно, чтобы реконструировать цепочку странных событий, которые привели каждого из них туда, где они сейчас оказались…
Качество: DVDRip
Формат: AVI
Видео кодек: XviD
Аудио кодек: AC-3 2000
Видео: Xvid 720x400 23.976 fps 1 636 kbps
Аудио: Dolby AC3 48000 Hz 6ch. 384 kbps

Медиа инфо

Video
ID : 0
Format : MPEG-4 Visual
Format profile : Advanced [email protected]
Format settings, BVOP : 1
Format settings, QPel : No
Format settings, GMC : No warppoints
Format settings, Matrix : Custom
Codec ID : XVID
Codec ID/Hint : XviD
Duration : 1h 42mn
Bit rate : 1 636 Kbps
Width : 720 pixels
Height : 400 pixels
Display aspect ratio : 16:9
Frame rate : 23.976 fps
Color space : YUV
Chroma subsampling : 4:2:0
Bit depth : 8 bits
Scan type : Progressive
Compression mode : Lossy
Bits/(Pixel*Frame) : 0.237
Stream size : 1.17 GiB (81%)
Writing library : XviD 1.2.1 (UTC 2008-12-04)
Audio
ID : 1
Format : AC-3
Format/Info : Audio Coding 3
Mode extension : CM (complete main)
Codec ID : 2000
Duration : 1h 42mn
Bit rate mode : Constant
Bit rate : 384 Kbps
Channel(s) : 6 channels
Channel positions : Front: L C R, Side: L R, LFE
Sampling rate : 48.0 KHz
Bit depth : 16 bits
Compression mode : Lossy
Stream size : 282 MiB (19%)
Alignment : Split accross interleaves
Interleave, duration : 42 ms (1.00 video frame)
Interleave, preload duration : 500 ms

Скриншоты



Пила 2 - Saw 2
Год выпуска: 2005
Страна: США, Австралия
Жанр: Триллер / Ужасы / Драма
Продолжительность: 01:34:33
Перевод: профессиональный (полное дублирование)
Режиссер: Даррен Линн Баусман
Продюссер: Грегг Хоффман, Марк Бёрг, Джеймс Ван, Ли Уоннелл
Сценарий: Ли Уоннелл, Даррен Линн Босман
Бюджет: 4 млн. $
В ролях: Тобин Белл, Шоуни Смит, Донни Уолберг
Описание: Майкл приходит в себя в какой-то комнате, его взгляд медленно фокусируется на лампочке, свисающей с потолка. Наконец, он окончательно приходит в себя и оглядывается — в комнате практически ничего нет, кроме телевизора, ящика на полу и зеркала рядом с Майклом. Посмотрев в него, Майкла охватывает ужас — его правый глаз залит кровью и распух. На самом Майкле надето устройство — раскрытая маска с шипами внутри...
Качество: DVDRip
Формат: AVI
Видео кодек: XviD
Аудио кодек: MP3
Видео: Xvid 720x400 25 fps 2 034 kbps
Аудио: MPEG Audio Layer 3 44100 Hz Stereo 256 kbps

Медиа инфо

Video
ID : 0
Format : xvid
Codec ID : xvid
Duration : 1h 34mn
Bit rate : 2 034 Kbps
Width : 720 pixels
Height : 400 pixels
Display aspect ratio : 16:9
Frame rate : 25.000 fps
Bits/(Pixel*Frame) : 0.283
Stream size : 1.34 GiB (88%)
Audio
ID : 1
Format : MPEG Audio
Format version : Version 1
Format profile : Layer 3
Mode : Joint stereo
Mode extension : MS Stereo
Codec ID : 55
Codec ID/Hint : MP3
Duration : 1h 34mn
Bit rate mode : Constant
Bit rate : 256 Kbps
Channel(s) : 2 channels
Sampling rate : 44.1 KHz
Compression mode : Lossy
Stream size : 173 MiB (11%)
Alignment : Aligned on interleaves
Interleave, duration : 26 ms (0.65 video frame)
Writing library : LAME3.98 (alpha)

Скриншоты



Пила 3 - Saw 3
Год выпуска: 2006
Страна: США
Жанр: Ужасы / Триллер
Продолжительность: 01:53:45
Перевод: профессиональный (полное дублирование)
Режиссер: Даррен Линн Баусман
Продюссер: Трой Бегнод, Питер Блок, Марк Бёрг
Сценарий: Джеймс Ван, Ли Уоннелл
Бюджет: 10 млн. $
В ролях: Тобин Белл, Шоуни Смит, Ангус МакФадьен
Описание: Улизнув от полиции, психопат-убийца Джигсоу превращает заброшенный склад на краю города в жуткую камеру пыток. Его протеже Аманда похищает доктора Линн Денлон, чтобы та поддерживала жизнь маньяка, пока он в последний раз забавляется со своими жертвами. Умирая от рака и уже находясь одной ногой в могиле, Джигсоу однако все еще полон кровожадных идей...
Качество: DVDRip
Формат: AVI
Видео кодек: XviD
Аудио кодек: AC-3 2000
Видео: Xvid 720x400 23.976fps 1 443 kbps
Аудио: Dolby AC3 48000 Hz 6ch. 384 kbps

Медиа инфо

Video
ID : 0
Format : MPEG-4 Visual
Format profile : Advanced [email protected]
Format settings, BVOP : 1
Format settings, QPel : No
Format settings, GMC : No warppoints
Format settings, Matrix : Custom
Codec ID : XVID
Codec ID/Hint : XviD
Duration : 1h 53mn
Bit rate : 1 443 Kbps
Width : 720 pixels
Height : 400 pixels
Display aspect ratio : 16:9
Frame rate : 23.976 fps
Color space : YUV
Chroma subsampling : 4:2:0
Bit depth : 8 bits
Scan type : Progressive
Compression mode : Lossy
Bits/(Pixel*Frame) : 0.209
Stream size : 1.15 GiB (79%)
Writing library : XviD 1.2.1 (UTC 2008-12-04)
Audio
ID : 1
Format : AC-3
Format/Info : Audio Coding 3
Mode extension : CM (complete main)
Codec ID : 2000
Duration : 1h 53mn
Bit rate mode : Constant
Bit rate : 384 Kbps
Channel(s) : 6 channels
Channel positions : Front: L C R, Side: L R, LFE
Sampling rate : 48.0 KHz
Bit depth : 16 bits
Compression mode : Lossy
Stream size : 312 MiB (21%)
Alignment : Split accross interleaves
Interleave, duration : 42 ms (1.00 video frame)
Interleave, preload duration : 500 ms

Скриншоты



Пила 4 - Saw 4
Год выпуска: 2007
Страна: США
Жанр: Триллер
Продолжительность: 01:35:32
Перевод: профессиональный (полное дублирование)
Режиссер: Даррен Линн Боусман
Продюссер: Марк Бург, Орен Коулс, Джеймс Ван, Ли Уоннелл
Сценарий: Маркус Данстен, Патрик Мелтон, Томас Фентон
Бюджет: 10 млн. $
В ролях: Тобин Белл, Скотт Паттерсон, Бетси Рассел, Костас Мендилор, Лайрик Бент, Афена Карканис, Джастин Луиз Симон Рейнольдс, Майк Рилаба, Марти Адамс, Донни Уолберг, Бахар Сумех
Описание: Джигсоу и его ученица Аманда мертвы. После известий об убийстве детектива Керри, два сотрудника ФБР, агент Стрэм и агент Перес, прибывают на место преступления, чтобы помочь опытному детективу Хоффману разобраться в хитросплетениях ловушек, которые оставил после себя Джигсоу. Однако когда командир отряда быстрого реагирования Ригг оказывается втянут в смертельную игру маньяка, у последнего из нетронутых Джигсоу офицеров есть 90 минут на то, чтобы обойти ужасные ловушки и спасти старого друга, иначе их обоих ждет жуткая смерть...
Качество: DVDRip
Формат: AVI
Видео кодек: XviD
Аудио кодек: AC-3 2000
Видео: Xvid 720x400 23.976 fps 1 790 kbps
Аудио: Dolby AC3 48000 Hz 6ch. 384 kbps

Медиа инфо

Video
ID : 0
Format : MPEG-4 Visual
Format profile : Advanced [email protected]
Format settings, BVOP : 1
Format settings, QPel : No
Format settings, GMC : No warppoints
Format settings, Matrix : Custom
Codec ID : XVID
Codec ID/Hint : XviD
Duration : 1h 35mn
Bit rate : 1 790 Kbps
Width : 720 pixels
Height : 400 pixels
Display aspect ratio : 16:9
Frame rate : 23.976 fps
Color space : YUV
Chroma subsampling : 4:2:0
Bit depth : 8 bits
Scan type : Progressive
Compression mode : Lossy
Bits/(Pixel*Frame) : 0.259
Stream size : 1.19 GiB (82%)
Writing library : XviD 1.2.1 (UTC 2008-12-04)
Audio
ID : 1
Format : AC-3
Format/Info : Audio Coding 3
Mode extension : CM (complete main)
Codec ID : 2000
Duration : 1h 35mn
Bit rate mode : Constant
Bit rate : 384 Kbps
Channel(s) : 6 channels
Channel positions : Front: L C R, Side: L R, LFE
Sampling rate : 48.0 KHz
Bit depth : 16 bits
Compression mode : Lossy
Stream size : 262 MiB (18%)
Alignment : Split accross interleaves
Interleave, duration : 42 ms (1.00 video frame)
Interleave, preload duration : 500 ms

Скриншоты



Пила 5 - Saw 5
Год выпуска: 2008
Страна: США, Австралия
Жанр: Триллер / Фильм ужасов
Продолжительность: 01:35:04
Перевод: профессиональный (полное дублирование)
Режиссер: Девид Хакл
Продюссер: Марк Бёрг, Грегг Хоффман, Орен Каулз
Сценарий: Патрик Мелтон, Маркус Данстэн
Бюджет: 10,8 млн. $
В ролях: Тобин Белл, Костас Мандилор, Скот Патерсон
Описание: Квиквел самой долгоиграющей хоррор-франшизы десятилетия. Цена вопроса та же: чтобы выжить, герою нужно ампутировать какую-нибудь часть тела либо у самого себя, либо у своего соседа — кусачками, лобзиком, топором и прочим подручным инвентарем. Живее всех живых оказывается в результате маньяк Пила, придумавший весь аттракцион и скончавшийся, кажется, в районе второй серии...
Качество: DVDRip
Формат: AVI
Видео кодек: XviD
Аудио кодек: AC-3 2000
Видео: Xvid 720x400 23.976 fps 1 799 kbps
Аудио: Dolby AC3 48000 Hz 6ch. 384 kbps

Медиа инфо

Video
ID : 0
Format : MPEG-4 Visual
Format profile : Advanced [email protected]
Format settings, BVOP : 1
Format settings, QPel : No
Format settings, GMC : No warppoints
Format settings, Matrix : Custom
Codec ID : XVID
Codec ID/Hint : XviD
Duration : 1h 35mn
Bit rate : 1 799 Kbps
Width : 720 pixels
Height : 400 pixels
Display aspect ratio : 16:9
Frame rate : 23.976 fps
Color space : YUV
Chroma subsampling : 4:2:0
Bit depth : 8 bits
Scan type : Progressive
Compression mode : Lossy
Bits/(Pixel*Frame) : 0.261
Stream size : 1.19 GiB (82%)
Writing library : XviD 1.2.1 (UTC 2008-12-04)
Audio
ID : 1
Format : AC-3
Format/Info : Audio Coding 3
Mode extension : CM (complete main)
Codec ID : 2000
Duration : 1h 35mn
Bit rate mode : Constant
Bit rate : 384 Kbps
Channel(s) : 6 channels
Channel positions : Front: L C R, Side: L R, LFE
Sampling rate : 48.0 KHz
Bit depth : 16 bits
Compression mode : Lossy
Stream size : 261 MiB (18%)
Alignment : Split accross interleaves
Interleave, duration : 42 ms (1.00 video frame)
Interleave, preload duration : 500 ms

Скриншоты



Пила 6 - Saw 6
Год выпуска: 2009
Страна: США, Канада, Великобритания, Австралия
Жанр: Триллер / Фильм ужасов / Детектив
Продолжительность: 01:26:35
Перевод: профессиональный (полное дублирование)
Режиссер: Кевин Гротерт
Продюссер: Марк Бёрг, Орэн Коулс
Сценарий: Патрик Мелтон, Маркус Данстэн
Бюджет: 11 млн. $
В ролях: Тобин Белл, Костас Мэндилор, Марк Ролстон, Бетси Расселл, Шоуни Смит, Питер Аутербридж, Саманта Лемоул, Танедра Ховард, Марти Моро, Шоун Ахмед
Описание: Специальный агент Страм мертв, и нет никаких сомнений в том, что детектив Хоффман является продолжателем дела убийцы маньяка по прозвищу Пила. Когда ФБР выходит на его след, он вынужден вновь начать Игру, наконец-то расставляющую все точки над "i" в грандиозном плане Пилы...
Качество: DVDRip
Формат: AVI
Видео кодек: XviD
Аудио кодек: AC-3 2000
Видео: Xvid 720x384 25 fps 1 951 kbps
Аудио: Dolby AC3 48000 Hz 6ch. 448 kbps

Медиа инфо

Video
ID : 0
Format : MPEG-4 Visual
Format profile : Advanced [email protected]
Format settings, BVOP : 1
Format settings, QPel : No
Format settings, GMC : No warppoints
Format settings, Matrix : Custom
Codec ID : XVID
Codec ID/Hint : XviD
Duration : 1h 26mn
Bit rate : 1 951 Kbps
Width : 720 pixels
Height : 384 pixels
Display aspect ratio : 1.875
Frame rate : 25.000 fps
Color space : YUV
Chroma subsampling : 4:2:0
Bit depth : 8 bits
Scan type : Progressive
Compression mode : Lossy
Bits/(Pixel*Frame) : 0.282
Stream size : 1.18 GiB (81%)
Writing library : XviD 1.2.1 (UTC 2008-12-04)
Audio
ID : 1
Format : AC-3
Format/Info : Audio Coding 3
Mode extension : CM (complete main)
Codec ID : 2000
Duration : 1h 26mn
Bit rate mode : Constant
Bit rate : 448 Kbps
Channel(s) : 6 channels
Channel positions : Front: L C R, Side: L R, LFE
Sampling rate : 48.0 KHz
Bit depth : 16 bits
Compression mode : Lossy
Stream size : 277 MiB (19%)
Alignment : Split accross interleaves
Interleave, duration : 4680 ms (117.01 video frames)

Скриншоты






Последний раз редактировалось: Kubaev_Muhiddin (2012-03-18 19:46), всего редактировалось 1 раз

Создавать темы 18-Мар-2012 19:20

[Профиль]  [ЛС] 

Mixer City

Стаж: 6 лет 7 месяцев

Сообщений: 754

Симпатии: 63

Kubaev_Muhiddin, время 5-й части укажи.

Создавать темы 18-Мар-2012 19:36

[Профиль]  [ЛС] 

Kubaev_Muhiddin ®

Стаж: 6 лет 6 месяцев

Сообщений: 104

Симпатии: 34

Исправил

Создавать темы 18-Мар-2012 19:48

[Профиль]  [ЛС] 

filth

Стаж: 6 лет

Сообщений: 25

Симпатии: 1

Автор когда раздача?

Создавать темы 19-Мар-2012 08:09

[Профиль]  [ЛС] 

mk

Стаж: 6 лет 7 месяцев

Сообщений: 33

Симпатии: 2

скорость?

Создавать темы 21-Мар-2012 22:58

[Профиль]  [ЛС] 

Kubaev_Muhiddin ®

Стаж: 6 лет 6 месяцев

Сообщений: 104

Симпатии: 34

Проверьте скорость стало больше

Создавать темы 25-Мар-2012 13:13

[Профиль]  [ЛС] 

filth

Стаж: 6 лет

Сообщений: 25

Симпатии: 1

Да спасибо...

Создавать темы 25-Мар-2012 16:59

[Профиль]  [ЛС] 

Forza.Baron

Стаж: 5 лет 5 месяцев

Сообщений: 22

раздача? скорость? !!!!!!!!!!!!! Будет или нет????

Создавать темы 02-Апр-2012 20:32

[Профиль]  [ЛС] 

skyline

Стаж: 5 лет 7 месяцев

Сообщений: 26

Симпатии: 1

Автор давай на максимум скорость, уже сколько дней качаю, тока 30%

Создавать темы 09-Апр-2012 23:38

[Профиль]  [ЛС] 

Kubaev_Muhiddin ®

Стаж: 6 лет 6 месяцев

Сообщений: 104

Симпатии: 34

Скорость стало болше если заметили

Создавать темы 13-Апр-2012 21:39

[Профиль]  [ЛС] 

skyline

Стаж: 5 лет 7 месяцев

Сообщений: 26

Симпатии: 1

блин уже больше двух недель качаю((((всего лишь 9гб тут, и тока 34% когда я скачаю интересно всё, наверное до лета докачаю(((

Создавать темы 14-Апр-2012 12:17

[Профиль]  [ЛС] 

skyline

Стаж: 5 лет 7 месяцев

Сообщений: 26

Симпатии: 1

за эти пять дней считай только 4% скачалось(((

Создавать темы 14-Апр-2012 12:19

[Профиль]  [ЛС] 

Kubaev_Muhiddin ®

Стаж: 6 лет 6 месяцев

Сообщений: 104

Симпатии: 34

Терпение skyline, терпение, качают все как ты

Создавать темы 17-Апр-2012 00:41

[Профиль]  [ЛС] 

Баха

Стаж: 5 лет 6 месяцев

Сообщений: 26

Симпатии: 10

Фильм гадкий и туфта... Мне вообще не нравится этот фильм.

Создавать темы 22-Апр-2012 13:50

[Профиль]  [ЛС] 

skyline

Стаж: 5 лет 7 месяцев

Сообщений: 26

Симпатии: 1

Баха, держи своё мнение при себе у каждого свои вкусы....

Создавать темы 25-Апр-2012 09:35

[Профиль]  [ЛС] 
Показать сообщения:    
Ответить на тему

Текущее время: 18-Авг 23:30

Часовой пояс: UTC + 5



Вы не можете начинать темы
Вы не можете отвечать на сообщения
Вы не можете редактировать свои сообщения
Вы не можете удалять свои сообщения
Вы не можете голосовать в опросах
Вы не можете прикреплять файлы к сообщениям
Вы не можете скачивать файлы