Юбилейный концерт Николая Расторгуева и группы "Любэ" [2012 г., Pop/Rock, SATRip]

Ответить на тему
 

bahrom81 ®

Стаж: 7 лет 3 месяца

Сообщений: 40

Юбилейный концерт Николая Расторгуева и группы "Любэ" Год выпуска: 2012
Страна: Россия
Жанр: Pop/Rock
Продолжительность: 01:42:49
Юбилейный концерт Николая Расторгуева и группы “Любэ” на Первом канале (3.03.2012). В своём творчестве музыканты используют элементы рок-музыки, шансона, русской народной музыки и авторской песни, поэтому «Любэ» сложно отнести к какому-либо одному стилю. Идея создания группы принадлежит продюсеру и композитору Игорю Матвиенко, работавшему в то время в Студии Популярной Музыки «Рекорд». В 1987—1988 гг. он написал музыку для дебютных песен на стихи поэтов Александра Шаганова и Михаила Андреева. В те же годы был найден и бессменный лидер группы, солист Николай Расторгуев. Возможно, именно ему принадлежит идея названия группы, поскольку он родом из подмосковных Люберец. Название группы, возможно, связано с популярным в те годы молодежным движением люберов…

Треклист:

1. Давай-наяривай (Любэ, Сати Казанова)
2. Улочки Московские
3. А ну-ка, девушки! (Любэ, Мобильные блондинки)
4. Прорвемся, Опера!
5. Позови меня тихо по имени
6. Не валяй дурака, Америка (Любэ, М.Кожевникова, Е.Николаева)
7. Дорога
8. Ребята с нашего двора
9. Попурри (Любэ, Иванушки Инт.)
10. Берёзы
11. Drive My Car (Любэ, М.Боярский, А.Маршал)
12. Три подружки (Фабрика)
13. Чудесней всех историй (Любэ, Е.Гусева, Непоседы)
14. Все опять начинается (Любэ, Город 312)
15. Свои
16. От Волги до Енисея
17. Конь (Хор мужского Сретенского монастыря)
18. По высокой траве (Любэ и офицеры группы Альфа)
19. Давай за!..
20. Комбат
21. Там, за туманами...
22. Атас
23. Просто любовь (Любэ, Корни, In2Nation)
24. Главное, что есть ты у меня
25. Долго (Любэ, Е.Гусева)
26. Если
Качество: SATRip
Формат: AVI
Видео кодек: XviD
Аудио кодек: MPEG Audio
Видео: 704x400 (16х9), 25 fps, XviD 1.2.1 ~1800 kbps avg, 0.255 bit/pixel
Аудио: MPEG Audio 48000Hz stereo 192kbps

MediaInfo:

Complete name : D:\Torrent files\2012 - Николаю Расторгуеву - 55.avi
Format : AVI
Format/Info : Audio Video Interleave
File size : 1.44 GiB
Duration : 1h 42mn
Overall bit rate : 2 000 Kbps
Writing application : VirtualDubMod 1.5.10.2 (build 2540/release)
Writing library : VirtualDubMod build 2540/release
Video
ID : 0
Format : MPEG-4 Visual
Format profile : Advanced [email protected]
Format settings, BVOP : 2
Format settings, QPel : No
Format settings, GMC : No warppoints
Format settings, Matrix : Custom
Codec ID : XVID
Codec ID/Hint : XviD
Duration : 1h 42mn
Bit rate : 1 799 Kbps
Width : 704 pixels
Height : 400 pixels
Display aspect ratio : 16:9
Frame rate : 25.000 fps
Color space : YUV
Chroma subsampling : 4:2:0
Bit depth : 8 bits
Scan type : Progressive
Compression mode : Lossy
Bits/(Pixel*Frame) : 0.255
Stream size : 1.29 GiB (90%)
Writing library : XviD 1.2.1 (UTC 2008-12-04)
Audio
ID : 1
Format : MPEG Audio
Format version : Version 1
Format profile : Layer 2
Codec ID : 50
Duration : 1h 42mn
Bit rate mode : Constant
Bit rate : 192 Kbps
Channel(s) : 2 channels
Sampling rate : 48.0 KHz
Compression mode : Lossy
Stream size : 141 MiB (10%)
Alignment : Aligned on interleaves
Interleave, duration : 40 ms (1.00 video frame)
Interleave, preload duration : 504 ms

Скриншоты








Последний раз редактировалось: bahrom81 (2012-03-19 06:30), всего редактировалось 1 раз

Создавать темы 18-Мар-2012 23:22

[Профиль]  [ЛС] 

ага

Стаж: 5 лет 5 месяцев

Сообщений: 43

А что "Свои" без Лепса чтоли?(

Создавать темы 20-Окт-2012 04:38

[Профиль]  [ЛС] 

bahrom81 ®

Стаж: 7 лет 3 месяца

Сообщений: 40

вернулся к раздаче!

Создавать темы 04-Янв-2015 17:22

[Профиль]  [ЛС] 
Показать сообщения:    
Ответить на тему

Текущее время: 19-Окт 01:31

Часовой пояс: UTC + 5



Вы не можете начинать темы
Вы не можете отвечать на сообщения
Вы не можете редактировать свои сообщения
Вы не можете удалять свои сообщения
Вы не можете голосовать в опросах
Вы не можете прикреплять файлы к сообщениям
Вы не можете скачивать файлы