Домашняя работа / The Art of Getting By (Гэвин Вьесен) [2011 г., драма, мелодрама, BDRip 720р]

Ответить на тему
 

ziyod ®

Стаж: 7 лет 9 месяцев

Сообщений: 367

Симпатии: 60

Домашняя работа
The Art of Getting By
-«The toughest lesson is love.»- Информация о фильме:
Год выпуска: 2011
Страна: США
Жанр: драма, мелодрама
Продолжительность: 83 мин. / 01:23:17
Перевод: Профессиональный (полное дублирование)-Режиссер: Гэвин Вьесен
Продюссер: Кара Бэйкер, Гия Уолш, П. Дженнифер Дэна
Сценарий: Гэвин Вьесен
Премьера в мире: 23 января 2011-В ролях: Фредди Хаймор, Эмма Робертс, Саша Спилберг, Маркус Карл Франклин, Энн Дауд, Майя Ри Санчез, Блэр Андервуд, Энн Харада, Рита Уилсон, Ярлат Конрой-Описание: История повествует о парне, который имеет славу разгильдяя и двоечника. У него появляется реальный шанс понравиться девушке своей мечты.-Рейтинг:
 
PG-13 - Детям до 13 лет просмотр не желателен-Файл:
Качество: BDRip
Формат: MKV
Видео кодек: H.26x
Аудио кодек: AC3
Видео: 5994 kb/s, 1280x532
Аудио: 384 kb/s (6 ch)
Субтитры: Russian, English-

MI

General
Unique ID                                : 214274405641130568459033311971401791724 (0xA133BFD9989A4FF49913710ABB77F8EC)
Complete name                            : Domashhyaya.Rabota.2011.D.BDRip.720p.mkv
Format                                   : Matroska
Format version                           : Version 2
File size                                : 3.71 GiB
Duration                                 : 1h 23mn
Overall bit rate                         : 6 380 Kbps
Movie name                               : Reliz by IronClub
Encoded date                             : UTC 2012-03-20 15:43:52
Writing application                      : mkvmerge v4.0.0 ('The Stars were mine') сборка от Jun  6 2010 16:18:42
Writing library                          : libebml v1.0.0 + libmatroska v1.0.0
Video
ID                                       : 1
Format                                   : AVC
Format/Info                              : Advanced Video Codec
Format profile                           : [email protected]
Format settings, CABAC                   : Yes
Format settings, ReFrames                : 12 frames
Codec ID                                 : V_MPEG4/ISO/AVC
Duration                                 : 1h 23mn
Bit rate                                 : 5 994 Kbps
Width                                    : 1 280 pixels
Height                                   : 532 pixels
Display aspect ratio                     : 2.40:1
Frame rate                               : 23.976 fps
Color space                              : YUV
Chroma subsampling                       : 4:2:0
Bit depth                                : 8 bits
Scan type                                : Progressive
Bits/(Pixel*Frame)                       : 0.367
Stream size                              : 3.41 GiB (92%)
Title                                    : The.Art.of.Getting.By.2011
Writing library                          : x264 core 118 r2085+614 d1cc25d
Encoding settings                        : cabac=1 / ref=12 / deblock=1:-3:-3 / analyse=0x3:0x113 / me=umh / subme=10 / psy=1 / fade_compensate=0.00 / psy_rd=1.05:0.10 / mixed_ref=1 / me_range=32 / chroma_me=1 / trellis=2 / 8x8dct=1 / cqm=2 / deadzone=21,11 / fast_pskip=0 / chroma_qp_offset=-2 / threads=12 / sliced_threads=0 / nr=0 / decimate=1 / interlaced=0 / bluray_compat=0 / constrained_intra=0 / fgo=0 / bframes=6 / b_pyramid=2 / b_adapt=2 / b_bias=0 / direct=3 / weightb=1 / open_gop=0 / weightp=2 / keyint=250 / keyint_min=23 / scenecut=40 / intra_refresh=0 / rc_lookahead=40 / rc=2pass / mbtree=1 / bitrate=5994 / ratetol=1.0 / qcomp=0.60 / qpmin=1 / qpmax=63 / qpstep=4 / cplxblur=20.0 / qblur=0.5 / vbv_maxrate=40000 / vbv_bufsize=30000 / nal_hrd=none / ip_ratio=1.40 / aq=2:1.00
Language                                 : English
Audio
ID                                       : 2
Format                                   : AC-3
Format/Info                              : Audio Coding 3
Mode extension                           : CM (complete main)
Codec ID                                 : A_AC3
Duration                                 : 1h 23mn
Bit rate mode                            : Constant
Bit rate                                 : 384 Kbps
Channel(s)                               : 6 channels
Channel positions                        : Front: L C R, Side: L R, LFE
Sampling rate                            : 48.0 KHz
Bit depth                                : 16 bits
Compression mode                         : Lossy
Stream size                              : 229 MiB (6%)
Title                                    : DUB
Language                                 : Russian
Text #1
ID                                       : 3
Format                                   : UTF-8
Codec ID                                 : S_TEXT/UTF8
Codec ID/Info                            : UTF-8 Plain Text
Title                                    : русский
Language                                 : Russian
Text #2
ID                                       : 4
Format                                   : UTF-8
Codec ID                                 : S_TEXT/UTF8
Codec ID/Info                            : UTF-8 Plain Text
Title                                    : оригинал
Language                                 : English
--


Последний раз редактировалось: ziyod (2012-03-28 06:23), всего редактировалось 1 раз

Создавать темы 20-Мар-2012 20:39

[Профиль]  [ЛС] 

DMiTRY

Стаж: 6 лет 7 месяцев

Сообщений: 649

Симпатии: 28

скорости пожалуйста, раздающие...

Создавать темы 26-Мар-2012 16:54

[Профиль]  [ЛС] 

Indimion

Стаж: 4 года 5 месяцев

Сообщений: 14

плз газу

Создавать темы 25-Май-2014 15:22

[Профиль]  [ЛС] 
Показать сообщения:    
Ответить на тему

Текущее время: 15-Дек 20:50

Часовой пояс: UTC + 5



Вы не можете начинать темы
Вы не можете отвечать на сообщения
Вы не можете редактировать свои сообщения
Вы не можете удалять свои сообщения
Вы не можете голосовать в опросах
Вы не можете прикреплять файлы к сообщениям
Вы не можете скачивать файлы