Зачистка / Removal (Ник Саймон) [2010 г., триллер, DVDRip]

Ответить на тему
 

djek ®

Стаж: 5 лет 8 месяцев

Сообщений: 90

Симпатии: 4

Зачистка / Removal
Год выпуска: 2010
Страна: США
Жанр: триллер
Продолжительность: 01:39:02
Перевод: Профессиональный (многоголосый закадровый)
Режиссер: Ник Саймон
Продюссер: Скотт С. Сильвер, Томас Махони, Chady Eli Mattar
Сценарий: Daniel Meersand, Оз Перкинс, Ник Саймон
Премьера в мире: 7 ноября 2010
В ролях: Билли Бёрк , Марк Келли , Оз Перкинс
Эмма Колфилд , Келли Брук , Эллиот Гулд , Шарон Оми
Сара Буркхардт , Бронвин Корнелиус , Ким Эстес
Описание: С тех пор, как Коул стал свидетелем убийства, его жизнь покатилась под откос. Жена бросила его, он страдает от галлюцинаций, а на кусок хлеба ему приходится зарабатывать чисткой ковров. В тот момент, когда Коул, казалось бы, достиг самого дна, его вызывают на ночную работу в загородный особняк…
Кинопоиск рейтинг: 5.133 (122)
Качество: DVDRip
Формат: AVI
Видео кодек: XviD
Аудио кодек:MP 3
Видео: Xvid 720x304 23.98fps 1849kbps
Аудио: MPEG Audio Layer 3 48000Hz stereo 128kbps

Media info

General
Complete name : D:\Torrents\tas-ix djek\Removal DVDRip (2010).avi
Format : AVI
Format/Info : Audio Video Interleave
File size : 1.37 GiB
Duration : 1h 39mn
Overall bit rate : 1 975 Kbps
Writing application : VirtualDubMod 1.5.10.2 (build 2542/release)
Writing library : VirtualDub build 33769/release
Video
ID : 0
Format : MPEG-4 Visual
Format profile : Advanced [email protected]
Format settings, BVOP : 2
Format settings, QPel : No
Format settings, GMC : No warppoints
Format settings, Matrix : Default (H.263)
Muxing mode : Packed bitstream
Codec ID : XVID
Codec ID/Hint : XviD
Duration : 1h 39mn
Bit rate : 1 849 Kbps
Width : 720 pixels
Height : 304 pixels
Display aspect ratio : 2.35:1
Frame rate : 23.976 fps
Color space : YUV
Chroma subsampling : 4:2:0
Bit depth : 8 bits
Scan type : Progressive
Compression mode : Lossy
Bits/(Pixel*Frame) : 0.352
Stream size : 1.28 GiB (94%)
Writing library : XviD 64
Audio
ID : 1
Format : MPEG Audio Layer 3
Format/Info : Audio Coding 3
Mode extension : CM (complete main)
Codec ID : 2000
Duration : 1h 30mn
Bit rate mode : Constant
Bit rate : 128 Kbps
Channel(s) : 2 channels
Channel positions : Front: L R
Sampling rate : 48.0 KHz
Bit depth : 16 bits
Compression mode : Lossy
Stream size : 82.7 MiB (6%)
Alignment : Aligned on interleaves
Interleave, duration : 46 ms (1.10 video frame)
Interleave, preload duration : 512 ms

Скриншоты



Последний раз редактировалось: djek (2012-03-22 19:32), всего редактировалось 3 раз(а)

Создавать темы 21-Мар-2012 19:33

[Профиль]  [ЛС] 

djek ®

Стаж: 5 лет 8 месяцев

Сообщений: 90

Симпатии: 4

фильм триллер для любящих триллера очень классный кино (не пожалеете)

Создавать темы 21-Мар-2012 20:15

[Профиль]  [ЛС] 

shadow91

Стаж: 6 лет 4 месяца

Сообщений: 60

можно скорости?

Создавать темы 03-Июн-2012 09:50

[Профиль]  [ЛС] 
Показать сообщения:    
Ответить на тему

Текущее время: 17-Авг 18:48

Часовой пояс: UTC + 5



Вы не можете начинать темы
Вы не можете отвечать на сообщения
Вы не можете редактировать свои сообщения
Вы не можете удалять свои сообщения
Вы не можете голосовать в опросах
Вы не можете прикреплять файлы к сообщениям
Вы не можете скачивать файлы