Прекрасный «принц» / Geek Charming (Джеффри Хорнадэй) [2011 г., комедия, HDTVRip]

Ответить на тему
 

djek ®

Стаж: 5 лет 9 месяцев

Сообщений: 90

Симпатии: 4

Прекрасный «принц» / Geek Charming
Год выпуска: 2011
Страна: США
Жанр: комедия
Продолжительность: 01:37:31
Перевод: профессиональный (полное дублирование)
Режиссер: Джеффри Хорнадэй
Продюссер: Дэвид Хоберман, Тодд Либерман, Пол Е. Шапиро
Сценарий: Хилари Галаной, Элизабет Хакетт, Робин Палмер
Премьера в мире: 11 ноября 2011
В ролях: Сара Хайланд , Мэтт Прокоп
Саша Питерс , Джордан Николс , Ванесса Морган , Лили Симмонс
Дэвид Дел Рио , Джимми Беллинджер , Андреа Брукс , Lilli Birdsell
Описание: Главные герои фильма — самовлюбленная Дилан Шоунфилд, для которой главное всегда быть в центре внимания, и скромный парнишка Джош Роузен, помешанный на кино. Судьба сталкивает ребят, когда модница Дилан случайно роняет свою дорогую сумочку в фонтан торгового центра. Избалованная красавица уговаривает Джоша, который оказался рядом, достать сумку из воды. В знак признательности за помощь девушка соглашается стать героиней его документального фильма о феномене популярности. В процессе съемок Джош узнает настоящую Дилан, которая открывается с совершенно новой для него стороны. А девушка с удивлением понимает, что Джош, которого она всегда считала чудаковатым занудой, начинает ей нравиться…
Кинопоиск рейтинг : 6.756 (803 голосов)
Качество: HDTVRip
Формат: AVI
Видео кодек: XviD
Аудио кодек: MP3
Видео: Xvid 720x400 23.98fps 1865kbps
Аудио: MPEG Audio Layer 3 48000Hz stereo 128kbps

Media info

General
Complete name : D:\Torrents\tas-ix djek\Geek Charming (www.kinokopilka.tv).avi
Format : AVI
Format/Info : Audio Video Interleave
File size : 1.36 GiB
Duration : 1h 37mn
Overall bit rate : 2 003 Kbps
Writing application : VirtualDubModRus 1.5.10.1 (build 2439/release)
Writing library : VirtualDubMod build 2439/release
Video
ID : 0
Format : MPEG-4 Visual
Format profile : Advanced [email protected]
Format settings, BVOP : 2
Format settings, QPel : No
Format settings, GMC : No warppoints
Format settings, Matrix : Default (H.263)
Codec ID : XVID
Codec ID/Hint : XviD
Duration : 1h 37mn
Bit rate : 1 866 Kbps
Width : 720 pixels
Height : 400 pixels
Display aspect ratio : 16:9
Frame rate : 23.976 fps
Color space : YUV
Chroma subsampling : 4:2:0
Bit depth : 8 bits
Scan type : Progressive
Compression mode : Lossy
Bits/(Pixel*Frame) : 0.270
Stream size : 1.27 GiB (93%)
Writing library : XviD 1.2.1 (UTC 2008-12-04)
Audio
ID : 1
Format : MPEG Audio
Format version : Version 1
Format profile : Layer 3
Mode : Joint stereo
Mode extension : MS Stereo
Codec ID : 55
Codec ID/Hint : MP3
Duration : 1h 37mn
Bit rate mode : Constant
Bit rate : 128 Kbps
Channel(s) : 2 channels
Sampling rate : 48.0 KHz
Compression mode : Lossy
Stream size : 89.3 MiB (6%)
Alignment : Aligned on interleaves
Interleave, duration : 42 ms (1.00 video frame)
Interleave, preload duration : 504 ms

Скриншоты



Последний раз редактировалось: djek (2012-03-22 00:10), всего редактировалось 2 раз(а)

Создавать темы 21-Мар-2012 23:43

[Профиль]  [ЛС] 

victor0778

Стаж: 6 лет 7 месяцев

Сообщений: 1670

Симпатии: 142

качество здесь HDTVRip надо исправить-

Создавать темы 22-Мар-2012 00:05

[Профиль]  [ЛС] 

Тимофей

Стаж: 6 лет 9 месяцев

Сообщений: 33

Пожалуйста помогите с раздачей.

Создавать темы 17-Июн-2012 23:35

[Профиль]  [ЛС] 

Lokmen

Стаж: 5 лет 8 месяцев

Сообщений: 65

Симпатии: 3

дайте скорость 8% осталось!

Создавать темы 16-Июл-2012 07:56

[Профиль]  [ЛС] 

dakota94

Стаж: 4 года 11 месяцев

Сообщений: 1

дайте скорость!!! плиз

Создавать темы 09-Фев-2013 22:14

[Профиль]  [ЛС] 

Oscar

Стаж: 4 года 8 месяцев

Сообщений: 9

плиииизззз дайте скорость))))

Создавать темы 11-Фев-2013 16:54

[Профиль]  [ЛС] 

Spayke

Стаж: 4 года 2 месяца

Сообщений: 43

Симпатии: 1

Дайте скорости

Создавать темы 24-Июл-2013 12:09

[Профиль]  [ЛС] 

msaidova

Стаж: 5 лет 3 месяца

Сообщений: 33

Организуйте раздачу файлов, скачаю помогу с раздачей

Создавать темы 03-Мар-2015 17:22

[Профиль]  [ЛС] 

Ахмад салих

Стаж: 4 года 3 месяца

Сообщений: 117

Симпатии: 26

Встаньте На раздачу Пожалуйста

Создавать темы 03-Мар-2015 18:43

[Профиль]  [ЛС] 
Показать сообщения:    
Ответить на тему

Текущее время: 20-Сен 00:04

Часовой пояс: UTC + 5



Вы не можете начинать темы
Вы не можете отвечать на сообщения
Вы не можете редактировать свои сообщения
Вы не можете удалять свои сообщения
Вы не можете голосовать в опросах
Вы не можете прикреплять файлы к сообщениям
Вы не можете скачивать файлы