Кот в сапогах: Три Чертенка (Раман Хюи) [2011 г., мультфильм, короткометражка, BDRip]

Ответить на тему
 

DMiTRY ®

Стаж: 6 лет 6 месяцев

Сообщений: 649

Симпатии: 28

Кот в сапогах: Три Чертенка. Puss in Boots: The Three Diablos
Год выпуска: 2011
Жанр: мультфильм, короткометражка
Продолжительность: 00:13:05
Режиссер: Раман Хюи
В ролях: Антонио Бандерас, Гийом Аретос, Майлз Кристофер Бакши, Нина Зои Бакши, Уолт Дорн, Жилль Марини, Брэт Марнелл, Крис Миллер, Шарлотта Ньюхаус
Описание: Кот в сапогах отправляется на поиск рубина, украденного из короны принцессы пресловутым Французским вором Виспере. Его сопровождают три маленьких котенка, три Дьяволенка. Кот должен приручить их, прежде чем поставить под угрозу миссию.
Качество: BDRip
Формат: MKV
Видео кодек: x.264
Аудио кодек: AC3
Видео: 1920x1080 (16:9), 23.976 fps, 6192 kbps
Аудио #1: AC-3, 6 ch,48 Hz, 640 kbps (Rus)
Аудио #2: AC-3, 6 ch,48 Hz, 640 kbps (Eng)
Субтитры: Русские, Английские

Скриншоты



media info

Полное имя : G:\Мультики\Кот в сапогах\Кот в сапогах Три Чертенка - Puss in Boots The Three Diablos - 2011 - BDRip (1080p).mkv
Формат : Matroska
Версия формата : Version 2
Размер файла : 700 Мбайт
Продолжительность : 13 м.
Общий поток : 7473 Кбит/сек
Название фильма : Кот в сапогах: Три Чертенка / Puss in Boots: The Three Diablos (2011)
Дата кодирования : UTC 2012-03-18 14:02:11
Программа кодирования : mkvmerge v4.0.0 ('The Stars were mine') сборка от Jun 6 2010 16:18:42
Библиотека кодирования : libebml v1.0.0 + libmatroska v1.0.0
Видео
Идентификатор : 1
Формат : AVC
Формат/Информация : Advanced Video Codec
Профиль формата : [email protected]
Параметр CABAC формата : Да
Параметр ReFrames формата : 4 кадра
Идентификатор кодека : V_MPEG4/ISO/AVC
Продолжительность : 13 м.
Битрейт : 6192 Кбит/сек
Ширина : 1920 пикселей
Высота : 1080 пикселей
Соотношение сторон : 16:9
Частота кадров : 23,976 кадра/сек
Цветовое пространство : YUV
Субдискретизация насыщенности : 4:2:0
Битовая глубина : 8 бит
Тип развёртки : Прогрессивная
Бит/(Пиксели*Кадры) : 0.125
Размер потока : 566 Мбайт (81%)
Заголовок : Release by AlexKa
Библиотека кодирования : x264 core 122 r2184 5c85e0a
Настройки программы : cabac=1 / ref=4 / deblock=1:0:0 / analyse=0x3:0x133 / me=umh / subme=11 / psy=1 / psy_rd=1.00:0.00 / mixed_ref=1 / me_range=32 / chroma_me=1 / trellis=2 / 8x8dct=1 / cqm=0 / deadzone=21,11 / fast_pskip=0 / chroma_qp_offset=-2 / threads=12 / sliced_threads=0 / nr=0 / decimate=0 / interlaced=0 / bluray_compat=0 / constrained_intra=0 / bframes=3 / b_pyramid=2 / b_adapt=2 / b_bias=0 / direct=3 / weightb=1 / open_gop=0 / weightp=2 / keyint=240 / keyint_min=23 / scenecut=40 / intra_refresh=0 / rc_lookahead=60 / rc=2pass / mbtree=1 / bitrate=6192 / ratetol=1.0 / qcomp=0.60 / qpmin=0 / qpmax=69 / qpstep=4 / cplxblur=20.0 / qblur=0.5 / ip_ratio=1.40 / aq=1:1.00
Язык : English
Default : Нет
Forced : Нет
Аудио #1
Идентификатор : 2
Формат : AC-3
Формат/Информация : Audio Coding 3
Расширение режима : CM (complete main)
Идентификатор кодека : A_AC3
Продолжительность : 13 м.
Вид битрейта : Постоянный
Битрейт : 640 Кбит/сек
Каналы : 6 каналов
Расположение каналов : Front: L C R, Side: L R, LFE
Частота : 48,0 КГц
Битовая глубина : 16 бит
Метод сжатия : С потерями
Размер потока : 59,9 Мбайт (9%)
Заголовок : Rus
Язык : Russian
Default : Нет
Forced : Нет
Аудио #2
Идентификатор : 3
Формат : AC-3
Формат/Информация : Audio Coding 3
Расширение режима : CM (complete main)
Идентификатор кодека : A_AC3
Продолжительность : 13 м.
Вид битрейта : Постоянный
Битрейт : 640 Кбит/сек
Каналы : 6 каналов
Расположение каналов : Front: L C R, Side: L R, LFE
Частота : 48,0 КГц
Битовая глубина : 16 бит
Метод сжатия : С потерями
Размер потока : 59,9 Мбайт (9%)
Заголовок : Eng
Язык : English
Default : Нет
Forced : Нет
Текст #1
Идентификатор : 4
Формат : UTF-8
Идентификатор кодека : S_TEXT/UTF8
Идентификатор кодека/Информация : UTF-8 Plain Text
Заголовок : Rus
Язык : Russian
Default : Нет
Forced : Нет
Текст #2
Идентификатор : 5
Формат : UTF-8
Идентификатор кодека : S_TEXT/UTF8
Идентификатор кодека/Информация : UTF-8 Plain Text
Заголовок : Eng
Язык : English
Default : Нет
Forced : Нет
Меню
00:00:00.000 : :Chapter 01
00:05:06.723 : :Chapter 02
00:13:05.242 : :Chapter 03

Создавать темы 22-Мар-2012 09:34

[Профиль]  [ЛС] 

DMiTRY ®

Стаж: 6 лет 6 месяцев

Сообщений: 649

Симпатии: 28

перевод дубляж???
само собой,перевод полное дублирование,лицензия.

Создавать темы 22-Мар-2012 19:54

[Профиль]  [ЛС] 

Стефанчо

Стаж: 5 лет 10 месяцев

Сообщений: 16

СПС.Дайте скорость.Плиз.

Создавать темы 23-Мар-2012 10:50

[Профиль]  [ЛС] 

Стефанчо

Стаж: 5 лет 10 месяцев

Сообщений: 16

СПС.Дайте скорость.Плииииииз.)))))

Создавать темы 23-Мар-2012 10:58

[Профиль]  [ЛС] 

DMiTRY ®

Стаж: 6 лет 6 месяцев

Сообщений: 649

Симпатии: 28

стою на раздаче,качайте на здоровье.

Создавать темы 23-Мар-2012 11:38

[Профиль]  [ЛС] 

Asian_MEN

Стаж: 6 лет 6 месяцев

Сообщений: 21

спасибо

Создавать темы 24-Мар-2012 18:49

[Профиль]  [ЛС] 

DMiTRY ®

Стаж: 6 лет 6 месяцев

Сообщений: 649

Симпатии: 28

всё для вас делается,главное не уходите с раздачи...

Создавать темы 24-Мар-2012 20:15

[Профиль]  [ЛС] 

Chester

Стаж: 5 лет 2 месяца

Сообщений: 12

сейчас на раздачи?

Создавать темы 15-Окт-2012 21:50

[Профиль]  [ЛС] 

DMiTRY ®

Стаж: 6 лет 6 месяцев

Сообщений: 649

Симпатии: 28

сейчас на раздачи?
нет,сейчас не на раздаче. и врятли уже смогу выйти сюда,просите скачавших.

Создавать темы 15-Окт-2012 22:38

[Профиль]  [ЛС] 

Xomid

Стаж: 6 лет 6 месяцев

Сообщений: 34

Симпатии: 4

DMiTRY, скачать значит её нельзя так ?

Создавать темы 13-Апр-2013 12:58

[Профиль]  [ЛС] 

DMiTRY ®

Стаж: 6 лет 6 месяцев

Сообщений: 649

Симпатии: 28

DMiTRY, скачать значит её нельзя так ?
как,так?)

Создавать темы 13-Апр-2013 13:59

[Профиль]  [ЛС] 
Показать сообщения:    
Ответить на тему

Текущее время: 14-Дек 07:38

Часовой пояс: UTC + 5



Вы не можете начинать темы
Вы не можете отвечать на сообщения
Вы не можете редактировать свои сообщения
Вы не можете удалять свои сообщения
Вы не можете голосовать в опросах
Вы не можете прикреплять файлы к сообщениям
Вы не можете скачивать файлы