Влюбленные (Валерий Бебко, Олег Борщевский, Денис Гамзинов) [2011 г., драма, мелодрама, комедия, DVDRip]

Ответить на тему
 

alx777 ®

Стаж: 5 лет 9 месяцев

Сообщений: 87

Симпатии: 8

Влюбленные
Страна:Украина
Год выпуска: 2011
Жанр: драма, мелодрама, комедия
Продолжительность: 01.40.17
Режиссер: Валерий Бебко, Олег Борщевский, Денис Гамзинов
В ролях: Даша Астафьева, Ада Роговцева, Артем Семакин, Александр Яценко, Виталий Линецкий, Илья Исаев, Елена Фесуненко, Юлия Емельяненко, Николай Олейник, Григорий Калинин и др.
Описание: Альманах короткометражных фильмов о любви в современном мегаполисе, глазами молодых украинских режиссеров.
Качество: DVDRip
Формат: AVI
Видео кодек: XviD
Аудио кодек: AC3
Видео: XviD,720x400,25.000 fps,1 558 Kbps
Аудио: Русский,48000Hz, 6ch, 384 Kbps

MediaInfo

Complete name : G:\1\фильмы\Vlublennie.2011.O.DVDRip.ELEKTRI4KA.avi
Format : AVI
Format/Info : Audio Video Interleave
File size : 1.37 GiB
Duration : 1h 40mn
Overall bit rate : 1 951 Kbps
Movie name : Vlublennie.2011.O.DVDRip
Director : ELEKTRO-VDR
Genre : Comedy
Writing application : VirtualDubMod 1.5.10.2 (build 2540/release)
Original source form/Name : Movie
Copyright : ELEKTRI4KA
Video
ID : 0
Format : MPEG-4 Visual
Format profile : Advanced [email protected]
Format settings, BVOP : 2
Format settings, QPel : No
Format settings, GMC : No warppoints
Format settings, Matrix : Custom
Codec ID : XVID
Codec ID/Hint : XviD
Duration : 1h 40mn
Bit rate : 1 558 Kbps
Width : 720 pixels
Height : 400 pixels
Display aspect ratio : 16:9
Frame rate : 25.000 fps
Color space : YUV
Chroma subsampling : 4:2:0
Bit depth : 8 bits
Scan type : Progressive
Compression mode : Lossy
Bits/(Pixel*Frame) : 0.216
Stream size : 1.09 GiB (80%)
Writing library : XviD 1.2.0.dev47 (UTC 2006-11-01)
Audio
ID : 1
Format : AC-3
Format/Info : Audio Coding 3
Mode extension : CM (complete main)
Codec ID : 2000
Duration : 1h 40mn
Bit rate mode : Constant
Bit rate : 384 Kbps
Channel(s) : 6 channels
Channel positions : Front: L C R, Side: L R, LFE
Sampling rate : 48.0 KHz
Bit depth : 16 bits
Compression mode : Lossy
Stream size : 275 MiB (20%)
Alignment : Split accross interleaves
Interleave, duration : 40 ms (1.00 video frame)
Interleave, preload duration : 500 ms

Скриншоты





Последний раз редактировалось: alx777 (2012-05-14 11:31), всего редактировалось 5 раз(а)

Создавать темы 23-Мар-2012 10:22

[Профиль]  [ЛС] 

Элина

Стаж: 5 лет 9 месяцев

Сообщений: 28

Симпатии: 1

как фильм? кто нибудь видел?

Создавать темы 26-Мар-2012 21:49

[Профиль]  [ЛС] 

kubinec19865

Стаж: 5 лет 2 месяца

Сообщений: 10

имейте совесть дайте пожалуйста скорость

Создавать темы 25-Фев-2013 22:57

[Профиль]  [ЛС] 
Показать сообщения:    
Ответить на тему

Текущее время: 22-Ноя 20:01

Часовой пояс: UTC + 5



Вы не можете начинать темы
Вы не можете отвечать на сообщения
Вы не можете редактировать свои сообщения
Вы не можете удалять свои сообщения
Вы не можете голосовать в опросах
Вы не можете прикреплять файлы к сообщениям
Вы не можете скачивать файлы